<?xml version="1.0" standalone="no"?>
<!DOCTYPE svg PUBLIC "-//W3C//DTD SVG 1.1//EN" "http://www.w3.org/Graphics/SVG/1.1/DTD/svg11.dtd" >
<svg xmlns="http://www.w3.org/2000/svg">
<metadata></metadata>
<defs>
<font id="nexa_regularregular" horiz-adv-x="1556" >
<font-face units-per-em="2048" ascent="1434" descent="-614" />
<missing-glyph horiz-adv-x="524" />
<glyph horiz-adv-x="2048" />
<glyph horiz-adv-x="2048" />
<glyph horiz-adv-x="682" />
<glyph unicode="&#xd;" horiz-adv-x="548" />
<glyph unicode=" "  horiz-adv-x="524" />
<glyph unicode="&#x09;" horiz-adv-x="524" />
<glyph unicode="&#xa0;" horiz-adv-x="524" />
<glyph unicode="!" horiz-adv-x="540" d="M154 106q0 55 37 86.5t81.5 31.5t81.5 -31.5t37 -86.5t-37 -86.5t-81.5 -31.5t-81.5 31.5t-37 86.5zM180 328v1106h178v-1106h-178z" />
<glyph unicode="&#x22;" horiz-adv-x="776" d="M152 901v535h151v-535h-151zM473 901v535h152v-535h-152z" />
<glyph unicode="#" horiz-adv-x="1357" d="M76 317v154h198l125 485h-172v150h207l80 328h168l-80 -328h342l82 328h168l-82 -328h168v-150h-205l-125 -485h180v-154h-215l-77 -317h-168l78 317h-345l-77 -317h-166l78 317h-162zM438 463h344l127 502h-342z" />
<glyph unicode="$" horiz-adv-x="1368" d="M74 295l155 74q51 -107 184 -165.5t275 -58.5q72 0 142.5 14t134.5 43t103.5 81t39.5 120q0 43 -15.5 78.5t-48 61t-68.5 44.5t-90 33.5t-98.5 24t-107.5 19.5q-105 16 -165.5 28.5t-144.5 41.5t-129 67t-79 103.5t-35 152.5q-1 95 41 170.5t114.5 121.5t156 72t175.5 33 v195h168v4v-195q337 -34 455 -262l-147 -74q-48 84 -163.5 133.5t-234.5 51.5q-67 0 -132.5 -13.5t-125 -41.5t-95 -77.5t-34.5 -113.5q0 -34 12 -62t30 -48.5t48.5 -38.5t60.5 -30t74.5 -23t81 -18t88.5 -16q219 -34 313 -66q197 -67 252 -214q23 -64 23 -144 q-1 -79 -30.5 -145.5t-79 -113t-115 -80t-137 -51t-146.5 -21.5v-203h-166v199q-85 5 -163.5 25.5t-151 56.5t-131 94t-94.5 133z" />
<glyph unicode="%" horiz-adv-x="1523" d="M74 1140.5q0 58.5 20.5 114.5t59 99.5t101.5 70.5t140 27q78 0 141 -27t101.5 -70.5t59.5 -99.5t21 -114.5t-21 -114.5t-59.5 -99.5t-101.5 -70.5t-141 -27q-77 0 -140 27t-101.5 70.5t-59 99.5t-20.5 114.5zM199 0l927 1438h189l-926 -1438h-190zM218 1180 q-9 -38 0.5 -76t30 -69t59.5 -50.5t89 -19.5q49 0 87.5 19.5t58 50.5t28.5 69t-0.5 76t-29.5 69t-58.5 50.5t-87.5 19.5h-2q-49 0 -88 -19.5t-58.5 -50.5t-28.5 -69zM811.5 230.5q-16.5 66.5 0.5 133t53 121t105.5 89t157.5 34.5h-2q78 0 141 -26.5t101.5 -70.5t59.5 -100 t21 -114t-21 -114t-59.5 -100t-101.5 -70.5t-141 -26.5q-88 0 -157 34.5t-105 89t-52.5 121zM947 298q0 -46 19 -86t61 -66.5t99 -26.5q49 0 88 19.5t58.5 51.5t29 70t0 76t-29.5 70t-58.5 51.5t-87.5 19.5q-57 0 -99 -26.5t-61 -66.5t-19 -86z" />
<glyph unicode="&#x26;" horiz-adv-x="1431" d="M119 406q0 110 74.5 200t183.5 127q-103 32 -167.5 119.5t-64.5 191.5q0 189 148 296.5t377 107.5q77 0 143.5 -10t132 -36.5t111 -67.5t74 -108.5t28.5 -154.5h-168v4q0 53 -18 93t-47 64.5t-72.5 39.5t-88 20.5t-99.5 5.5q-173 0 -261 -72.5t-86 -176.5 q1 -66 35.5 -115.5t89.5 -75.5t112 -38.5t114 -12.5h637v-145h-127v-267q0 -105 35.5 -170.5t119.5 -64.5v-162q-91 -6 -159.5 36.5t-94.5 141.5q-69 -111 -175 -152.5t-240 -41.5q-258 0 -402.5 105t-144.5 319zM295 410q0 -127 98.5 -198t268.5 -71q43 0 88.5 7.5t94 27 t86.5 47.5t62.5 74t24.5 102v265h-361q-88 0 -159 -22.5t-114 -60t-66 -81.5t-23 -90z" />
<glyph unicode="'" horiz-adv-x="456" d="M152 901v537h153v-537h-153z" />
<glyph unicode="(" horiz-adv-x="694" d="M92 594q0 272 120 517t345 394l86 -119q-181 -134 -277 -341t-98 -443q-2 -242 93 -448.5t282 -346.5l-90 -126q-224 146 -342.5 392t-118.5 521z" />
<glyph unicode=")" horiz-adv-x="694" d="M51 1391l86 118q225 -148 345 -392.5t120 -516.5q0 -275 -118.5 -521.5t-342.5 -393.5l-88 125q186 139 280.5 346.5t92.5 449.5q-2 236 -98 443.5t-277 341.5z" />
<glyph unicode="*" horiz-adv-x="772" d="M113 1206l37 127l174 -61l-7 178h134l-11 -180l185 61l37 -125l-185 -43l127 -151l-106 -78l-115 162l-113 -162l-108 78l125 151z" />
<glyph unicode="+" horiz-adv-x="1024" d="M96 627v157h332v330h164v-330h336v-157h-336v-338h-164v338h-332z" />
<glyph unicode="," horiz-adv-x="485" d="M133 88q0 41 22.5 68.5t54.5 33t64.5 -1.5t55 -35t22.5 -69q0 -8 -12.5 -45.5t-36 -107.5t-39.5 -121h-112l51 184l2 4q-32 8 -52 31.5t-20 58.5z" />
<glyph unicode="-" horiz-adv-x="1015" d="M141 508v160h733v-160h-733z" />
<glyph unicode="." horiz-adv-x="487" d="M133 92q0 41 23 69.5t55.5 35t64.5 -0.5t55 -35.5t23 -70.5q0 -41 -23 -69.5t-55.5 -35t-64.5 0.5t-55 35.5t-23 70.5z" />
<glyph unicode="/" horiz-adv-x="1005" d="M51 -168l727 1729h176l-729 -1729h-174z" />
<glyph unicode="0" horiz-adv-x="1413" d="M127 573v287q0 144 50 260t131.5 187.5t185.5 110t212.5 38.5t212.5 -38.5t185.5 -110t131.5 -188t50 -259.5v-287q0 -143 -50 -259.5t-131.5 -188t-185.5 -110t-212.5 -38.5t-212.5 38.5t-185.5 110t-131.5 187.5t-50 260zM305 573q0 -118 44.5 -210t115 -139.5 t156 -69.5t171.5 0.5t156.5 70.5t115 140t44.5 210v287q0 116 -44.5 207.5t-115 139t-156.5 70t-171.5 0t-156 -69.5t-115 -139.5t-44.5 -209.5v-287z" />
<glyph unicode="1" horiz-adv-x="864" d="M106 0v150h267v1060l-252 -67v164l430 127v-1284h260v-150h-705z" />
<glyph unicode="2" horiz-adv-x="1380" d="M129 0v346q0 94 33.5 167t87.5 119t129.5 75.5t152.5 41t164 11.5q50 0 99 7t102.5 25.5t93.5 46.5t66 75t26 106q0 75 -32.5 130t-88.5 84.5t-118.5 43.5t-136.5 16q-71 0 -136 -13t-123.5 -41.5t-94 -81t-36.5 -122.5h-178q4 114 55.5 198t135.5 129.5t177.5 66 t199.5 20.5q83 0 160 -13.5t149.5 -45.5t125.5 -80t85.5 -122.5t32.5 -166.5q0 -95 -32.5 -169.5t-85.5 -122.5t-127 -79t-152 -44t-165 -13q-56 -1 -105.5 -7t-103.5 -22.5t-92 -43t-63 -71.5t-25 -104v-176h944v-170h-1124z" />
<glyph unicode="3" horiz-adv-x="1374" d="M111 391h178q1 -62 28.5 -108t67 -71t96.5 -40.5t104 -20t101 -4.5q175 0 284 68.5t109 190.5q0 47 -22 91t-66 82t-121 60.5t-176 22.5h-231v149h219q164 0 266.5 67.5t104.5 170.5q2 99 -91.5 171t-275.5 72q-51 0 -98.5 -5t-99.5 -20.5t-90 -40.5t-62.5 -67.5 t-24.5 -97.5h-176l-4 2q1 87 34.5 156.5t88 113t128 72t148 40t154.5 11.5q155 0 277.5 -47.5t194.5 -140.5t73 -217q0 -110 -71.5 -197t-184.5 -113q121 -30 202.5 -121t81.5 -208q0 -137 -77.5 -235.5t-205.5 -145.5t-292 -47q-82 0 -158.5 11.5t-153.5 41t-133 74 t-91 117t-35 163.5z" />
<glyph unicode="4" horiz-adv-x="1351" d="M53 498l746 936h286v-967h175v-166h-175v-301h-180v301h-827zM242 467h663v831z" />
<glyph unicode="5" horiz-adv-x="1347" d="M127 412h178q0 -60 24.5 -106.5t62.5 -74t91 -45t103 -24t104 -6.5q172 0 277.5 79t105.5 214q0 129 -94.5 205.5t-271.5 76.5h-553v703h1015v-164h-841v-371h379q258 0 401 -120t143 -328t-152.5 -335.5t-404.5 -127.5q-90 0 -168.5 12.5t-153 43t-127.5 78t-85 121.5 t-33 169z" />
<glyph unicode="6" horiz-adv-x="1417" d="M154 440v586q0 106 48 190t129 135.5t180 78t208 26.5q114 0 212.5 -23.5t177 -70t125 -122.5t50.5 -173h-178q-3 76 -58.5 131t-140 81t-186.5 26t-189.5 -32t-144.5 -97.5t-57 -151.5v-307q66 90 175.5 132t231.5 42q87 0 167 -15t155 -50t130.5 -86.5t88.5 -130 t33 -175.5q0 -93 -33 -170.5t-89 -129.5t-131 -88.5t-156 -52.5t-167 -16q-87 0 -169 16.5t-157.5 53.5t-131.5 90t-89.5 131t-33.5 172zM334 434q0 -76 35.5 -135t94.5 -92t127.5 -49.5t143.5 -16.5q75 1 143 17t126.5 49t93.5 91.5t35 135.5q0 62 -22.5 112.5t-60 84.5 t-88.5 57t-107 33t-116 10q-75 0 -145.5 -18.5t-129.5 -53.5t-94.5 -93.5t-35.5 -131.5z" />
<glyph unicode="7" horiz-adv-x="1148" d="M63 1266v168h1049l14 -115l-716 -1319h-203l698 1266h-842z" />
<glyph unicode="8" horiz-adv-x="1439" d="M117 406q0 117 77 209t199 126q-246 95 -246 312q0 106 50 187.5t133.5 128.5t182 70t206.5 23t206.5 -23t183 -69.5t135.5 -128t52 -188.5q0 -105 -69.5 -188t-184.5 -122q120 -34 200 -130t81 -212q1 -98 -34.5 -174.5t-93.5 -124.5t-138.5 -79t-163 -43t-174.5 -11 q-91 0 -172.5 12t-162.5 43t-138.5 79t-93.5 126t-35 177zM295 408q0 -71 38 -126t101 -86.5t135 -47t148 -15.5q75 0 147.5 15.5t137 46t104 85.5t39.5 126q0 69 -41.5 123t-107.5 83.5t-137 44.5t-140 15q-70 2 -140.5 -12t-136 -43.5t-106.5 -83.5t-41 -125zM326 1057 q1 -63 38.5 -112t97 -76.5t125.5 -41.5t132 -14q67 0 133.5 14t127 41.5t98.5 76.5t38 112q1 64 -36 115t-96.5 81t-128 45t-138.5 15q-98 0 -184.5 -26.5t-147 -86.5t-59.5 -143z" />
<glyph unicode="9" horiz-adv-x="1413" d="M109 1004q0 93 33 170.5t89 129.5t130.5 88t155.5 52t167 16q87 0 169.5 -16.5t157.5 -53.5t131.5 -90t90 -131t33.5 -172v-585q0 -85 -31.5 -157t-86 -121.5t-127 -84t-154 -51t-167.5 -16.5q-114 0 -213 23.5t-177.5 70t-125.5 122.5t-51 173h178q3 -73 58.5 -127 t141 -79.5t187.5 -25.5q74 0 143 18t125 51.5t90 87t34 118.5v313q-64 -94 -173.5 -137t-234.5 -43q-87 0 -167 15t-155 50t-130 86.5t-88 130t-33 175.5zM289 1004q0 -76 34 -135t91 -93t125 -51.5t143 -17.5t145.5 18.5t129 53.5t93.5 93.5t35 131.5q0 77 -35 135.5 t-94 92t-127.5 50t-144.5 16.5q-74 -1 -141 -17t-125.5 -49.5t-93.5 -92t-35 -135.5z" />
<glyph unicode=":" horiz-adv-x="501" d="M141 94q0 51 34 80.5t75.5 29.5t75.5 -29.5t34 -80.5t-34 -80.5t-75.5 -29.5t-75.5 29.5t-34 80.5zM141 698q0 51 34 80.5t75.5 29.5t75.5 -29.5t34 -80.5t-34 -80.5t-75.5 -29.5t-75.5 29.5t-34 80.5z" />
<glyph unicode=";" horiz-adv-x="505" d="M143 88q0 41 22.5 68.5t54.5 33t64.5 -1.5t55 -35t22.5 -69q0 -8 -12 -45t-37 -109t-41 -120h-110l51 186h2q-32 8 -52 31.5t-20 60.5zM145 696q0 41 22.5 69.5t55 35t65 0t55 -34t22.5 -68.5t-22.5 -69.5t-55 -35t-65 0t-55 34t-22.5 68.5z" />
<glyph unicode="&#x3c;" horiz-adv-x="765" d="M92 618v58l449 420l106 -115l-360 -334l366 -332l-112 -116z" />
<glyph unicode="=" horiz-adv-x="1146" d="M150 348v158h847v-158h-847zM150 780v158h847v-158h-847z" />
<glyph unicode="&#x3e;" horiz-adv-x="770" d="M117 309l366 338l-362 338l106 111l451 -420v-58l-451 -419z" />
<glyph unicode="?" horiz-adv-x="1243" d="M72 1024q0 89 31 162t82.5 121t122.5 81t147.5 47.5t160.5 14.5q86 0 163 -13.5t149 -45t124 -79t83 -121t30 -165.5q0 -52 -10 -97t-24.5 -77.5t-40 -62t-47 -47.5t-55.5 -37t-55 -28.5t-56.5 -24t-49.5 -21.5q-55 -21 -86.5 -41t-52 -53t-27 -76t-6.5 -115h-178 q0 82 11.5 143.5t32 105t56 76.5t77 55.5t100.5 43.5q33 13 49 20t45.5 21.5t45 27t36.5 32.5t31.5 42t18 52t7.5 65q0 63 -24 111t-61 76t-89.5 45.5t-101 23.5t-103.5 6q-65 0 -126 -14.5t-115.5 -44.5t-88 -84t-34.5 -125h-172zM457 111q0 55 36.5 86.5t81 31.5t81 -31.5 t36.5 -86.5t-36.5 -86.5t-81 -31.5t-81 31.5t-36.5 86.5z" />
<glyph unicode="@" horiz-adv-x="1849" d="M104 569q0 178 63.5 329.5t174 256.5t263.5 164t329 59q182 0 333 -52.5t260.5 -152t170.5 -251.5t61 -342q0 -144 -42 -261t-120 -180q-45 -37 -100 -49t-100.5 1t-75.5 54.5t-29 104.5q-51 -92 -158.5 -144.5t-211.5 -52.5q-143 0 -262 66t-188 183t-69 259 q0 158 70 275.5t186.5 177t262.5 59.5q107 0 206.5 -52.5t147.5 -141.5l8 143l135 -12v-736q0 -33 19.5 -48t45 -8t42.5 30q45 47 67.5 138t22.5 196q0 332 -178.5 495.5t-503.5 163.5q-140 0 -263.5 -48.5t-214.5 -135t-143.5 -213t-52.5 -275.5q0 -154 52.5 -278.5 t143.5 -204t211.5 -122t260.5 -42.5q160 0 305 80l70 -121q-168 -102 -377 -102q-174 0 -324 54t-260.5 153t-174 249.5t-63.5 333.5zM565 563q0 -166 98 -262t259 -96q86 0 155.5 30t112.5 81t65.5 115t22.5 136q0 70 -22.5 133.5t-65 114t-111.5 80t-155 29.5 q-162 0 -260.5 -97t-98.5 -264z" />
<glyph unicode="A" d="M35 0l643 1434h201l643 -1434h-193l-141 315h-819l-140 -315h-194zM438 479h680l-340 774z" />
<glyph unicode="B" horiz-adv-x="1447" d="M190 0v1434h627q99 0 185 -25t152.5 -73.5t105 -126.5t38.5 -177t-55.5 -177.5t-157.5 -117.5q123 -35 190.5 -134t67.5 -208q0 -89 -29 -158t-78 -113t-118 -72.5t-142.5 -40t-158.5 -11.5h-627zM369 168h448q50 0 94.5 5.5t92.5 21t82 40t56.5 67.5t22.5 99 q-1 65 -31.5 115.5t-81 79.5t-108.5 44t-119 15h-456v-487zM369 817h456q136 0 216.5 52.5t80.5 160.5q0 116 -84 179t-221 63h-448v-455z" />
<glyph unicode="C" horiz-adv-x="1454" d="M102 709v12q0 139 45 265q47 132 137.5 238t237 169t328.5 63q145 0 281 -54.5t243 -160.5l-123 -115q-163 160 -401 160q-112 0 -206.5 -31.5t-161 -85.5t-112.5 -127.5t-68 -157.5q-21 -80 -21 -165v-8q1 -89 23 -170.5t68 -153.5t111.5 -125t159.5 -84t207 -31 q111 0 219 43t188 123l125 -123q-107 -105 -244 -159t-288 -54q-148 0 -271.5 39.5t-210 108.5t-147.5 162t-89.5 199.5t-29.5 222.5z" />
<glyph unicode="D" horiz-adv-x="1536" d="M190 0v1434v2h523q142 0 261.5 -39t203 -106.5t142.5 -157.5t86.5 -191t27.5 -209q0 -113 -26.5 -217.5t-83.5 -199t-140 -164.5t-204 -111t-267 -41h-523zM369 178h344q111 0 202.5 31.5t153.5 85.5t104.5 126t62 151t19.5 163q0 102 -34 195t-98.5 168.5t-170.5 120.5 t-239 45h-344v-1086z" />
<glyph unicode="E" horiz-adv-x="1333" d="M190 0v1434h1008v-164h-831v-449h796v-166h-796v-485h864v-170h-1041z" />
<glyph unicode="F" horiz-adv-x="1282" d="M190 -2v1436h996v-170h-817v-500h782v-166h-782v-600h-179z" />
<glyph unicode="G" horiz-adv-x="1525" d="M104 710q0 212 87 380q88 171 259.5 271.5t399.5 100.5q145 0 282 -55t244 -160l-102 -119q-83 80 -197.5 124t-226.5 44q-134 0 -243.5 -48t-180 -129.5t-108 -188t-37.5 -225.5q0 -112 35.5 -211.5t104 -179t180.5 -126.5t253 -47q221 0 391 146v340h-446v157h608v-567 q-227 -244 -555 -244q-149 0 -273 39t-211 107.5t-147 161.5t-88.5 200t-28.5 229z" />
<glyph unicode="H" d="M190 0v1434h179v-621h819v621h178v-1434h-178v647h-819v-647h-179z" />
<glyph unicode="I" horiz-adv-x="559" d="M190 0v1434h179v-1434h-179z" />
<glyph unicode="J" horiz-adv-x="1409" d="M49 565h176q0 -195 113.5 -309.5t304.5 -114.5t303.5 117.5t112.5 314.5v697h-502v164h678v-861v-13q0 -262 -159 -422q-164 -165 -433 -165q-262 0 -428 160.5t-166 431.5z" />
<glyph unicode="K" horiz-adv-x="1286" d="M190 0v1434h177v-633l634 633h224v-11l-688 -680l749 -731v-12h-221l-698 674v-674h-177z" />
<glyph unicode="L" horiz-adv-x="1185" d="M190 0v1434h179v-1268h780v-166h-959z" />
<glyph unicode="M" horiz-adv-x="1810" d="M190 0v1434h213l504 -738l500 738h213v-1434h-176v1176l-520 -725h-37l-520 729v-1180h-177z" />
<glyph unicode="N" horiz-adv-x="1560" d="M190 0v1434h125l879 -1098v1098h176v-1434h-123l-880 1094v-1094h-177z" />
<glyph unicode="O" horiz-adv-x="1656" d="M100 713q0 209 87 377t255 268t389 100q141 -1 261 -42t204.5 -112t144 -165.5t87.5 -202.5q28 -104 28 -215v-8q-1 -114 -29 -221t-87 -202t-143 -166t-204.5 -112t-263.5 -41t-264 41t-205.5 111.5t-144 165.5t-87.5 202t-28 222zM279 713q0 -89 21 -171.5t65.5 -156 t108 -128t155.5 -86.5t202 -32q136 0 243.5 49.5t172 132t98 183t33.5 209.5v8q0 85 -20 164q-20 83 -64 157t-107.5 129.5t-155 88.5t-200.5 34q-133 0 -239.5 -46.5t-174 -127t-103 -184.5t-35.5 -223z" />
<glyph unicode="P" horiz-adv-x="1400" d="M190 0v1434h652q136 0 242.5 -53.5t161 -139t80.5 -189.5q13 -52 13 -104q0 -50 -13 -102q-26 -104 -80.5 -189.5t-161 -139.5t-242.5 -54h-475v-463h-177zM367 629h475q76 0 138 27.5t100 72.5t58.5 102.5t20.5 117t-20.5 117t-58.5 102.5t-100 72.5t-138 27.5h-475 v-639z" />
<glyph unicode="Q" horiz-adv-x="1665" d="M102 727q1 145 47.5 275t135 234t230.5 165t319 61q144 0 265 -40t205 -109t143 -162.5t87 -200.5t29 -223q0 -130 -39.5 -256t-114.5 -225l178 -172l-125 -125l-178 172v2q-178 -139 -450 -139q-145 0 -266.5 40.5t-206.5 110t-144 164.5t-87 203t-28 225zM281 721 q0 -112 35 -213t101 -182t173 -128.5t241 -47.5t242 49t174 131t101 184q32 97 32 203v12q-1 89 -21.5 170.5t-64 154t-106 125.5t-153.5 84t-201 31q-129 -1 -235.5 -48.5t-175 -126.5t-105.5 -181q-37 -100 -37 -211v-6z" />
<glyph unicode="R" horiz-adv-x="1458" d="M190 0v1434h652q117 0 211.5 -38.5t153 -104t89.5 -146.5t31 -170v-7q-1 -80 -23 -151q-24 -74 -71.5 -136t-129 -102t-188.5 -49l474 -530h-226l-446 516h-348v-516h-179zM369 676h465q154 0 234.5 83t80.5 212v5q-1 52 -19 103q-20 53 -56 97t-96.5 71t-135.5 27h-473 v-598z" />
<glyph unicode="S" horiz-adv-x="1359" d="M78 303l147 86q66 -122 193.5 -187t267.5 -65q56 0 109.5 7t108.5 26t95.5 48t66.5 76.5t26 108.5q1 52 -22.5 92.5t-59.5 67t-94 47.5t-111.5 33t-126.5 23q-68 11 -117.5 20.5t-110.5 26t-103.5 36t-85.5 49.5t-69 66.5t-42.5 87t-16.5 111.5v5q0 83 32 151 q33 70 87.5 114.5t128 75t148.5 43t153 12.5q87 0 158 -10.5t144 -37.5t134 -80.5t107 -131.5l-135 -84q-56 89 -166 136t-238 49q-71 0 -136 -14.5t-120 -43t-88 -77t-33 -111.5q0 -38 13.5 -69t41 -54t60 -40t80.5 -31t91 -23t103 -19q57 -9 95.5 -16t91.5 -18.5t89 -24 t79.5 -31t72 -40t58 -52t46.5 -65.5t27.5 -80.5t10.5 -98.5q-1 -93 -35.5 -167.5t-91.5 -122t-134 -79t-157 -44.5t-166 -13q-133 0 -246 32t-210 108t-150 192z" />
<glyph unicode="T" horiz-adv-x="1224" d="M35 1274v160h1155v-160h-490v-1274h-176v1274h-489z" />
<glyph unicode="U" horiz-adv-x="1517" d="M174 571v861h176v-861q0 -137 57.5 -237.5t149.5 -148.5t205 -48q173 0 289 116.5t116 319.5v861h174l2 -2v-861q0 -145 -46.5 -260.5t-127 -188t-184.5 -111t-223 -38.5q-117 0 -221 38t-187 110t-131.5 188.5t-48.5 261.5z" />
<glyph unicode="V" horiz-adv-x="1462" d="M41 1434h199l489 -1225l494 1225h196l-592 -1438h-192z" />
<glyph unicode="W" horiz-adv-x="2211" d="M55 1434h201l395 -1186l398 1186h114l402 -1186l391 1186h203l-502 -1436h-178l-373 1073l-371 -1073h-180z" />
<glyph unicode="X" horiz-adv-x="1302" d="M23 0v4l514 727l-486 694v7h207l393 -580l398 580h202v-7l-485 -694l514 -727v-4h-205l-424 602l-424 -602h-204z" />
<glyph unicode="Y" horiz-adv-x="1392" d="M47 1427v7h217l430 -680l441 680h217v-7l-566 -845v-582h-184v582z" />
<glyph unicode="Z" horiz-adv-x="1243" d="M61 0v96l834 1172h-791v166h1059v-78l-850 -1184h850v-172h-1102z" />
<glyph unicode="[" horiz-adv-x="675" d="M176 -352v1810h426v-153h-254v-1502h254v-155h-426z" />
<glyph unicode="\" horiz-adv-x="1005" d="M51 1561h176l727 -1729h-176z" />
<glyph unicode="]" horiz-adv-x="677" d="M76 -195h254v1502h-254v153h426v-1810h-426v155z" />
<glyph unicode="^" horiz-adv-x="1247" d="M100 745l457 691h127l463 -691l-2 -10h-182l-342 525l-342 -525h-177z" />
<glyph unicode="_" horiz-adv-x="1241" d="M139 -33h963v-149h-963v149z" />
<glyph unicode="`" horiz-adv-x="481" d="M27 1427v7h204l154 -260v-11h-154z" />
<glyph unicode="a" horiz-adv-x="1304" d="M90 506q0 160 70 280.5t188 181.5q116 60 257 60h5q117 0 219 -52.5t156 -148.5l2 185h164v-1012h-162l-4 -4l-4 184q-57 -100 -159.5 -152.5t-213.5 -52.5q-146 0 -263 63t-186 185t-69 283zM254 500q0 -165 104 -268t258 -103q100 0 179 41t119.5 106t59.5 144 q10 40 10 80q0 38 -10 78q-19 80 -59 145t-118.5 106t-178.5 41l-2 -2q-154 0 -258 -101.5t-104 -266.5z" />
<glyph unicode="b" horiz-adv-x="1304" d="M154 0v1434h168v-607q51 98 157 150.5t221 52.5q146 0 260.5 -59t183 -179.5t68.5 -285.5q0 -163 -68 -283t-183.5 -180.5t-262.5 -60.5q-117 0 -217.5 51.5t-158.5 150.5l-9 -184h-159zM330 508q0 -163 102.5 -266t255.5 -103t254.5 98.5t101.5 268.5q0 172 -101 269 t-255 97q-152 0 -255 -102t-103 -262z" />
<glyph unicode="c" horiz-adv-x="1056" d="M90 506q0 164 71.5 284.5t189.5 180t267 59.5q213 0 367 -151l-106 -111q-105 102 -256 102q-155 0 -259 -99t-104 -265q0 -171 103.5 -268t257.5 -97q160 0 264 107l112 -113l-2 2q-155 -155 -377 -155q-147 0 -265 59.5t-190.5 180t-72.5 284.5z" />
<glyph unicode="d" horiz-adv-x="1302" d="M92 506q0 247 143.5 385.5t366.5 138.5q115 0 221.5 -52.5t157.5 -150.5v607h166l2 2v-1434h-158l-8 184q-59 -101 -160.5 -152.5t-218.5 -51.5q-146 0 -261 60.5t-183 180.5t-68 283zM260 508q0 -170 101.5 -268.5t254.5 -98.5t256 103t103 266q0 160 -104 262t-257 102 h2q-154 0 -255 -97t-101 -269z" />
<glyph unicode="e" horiz-adv-x="1200" d="M90 510q0 229 147.5 376.5t376.5 147.5q118 0 215 -37t168 -108.5t104 -186.5q23 -81 23 -177q0 -41 -4 -85h-860q13 -138 116 -220.5t251 -82.5q91 0 181.5 34t139.5 93l113 -102h-2q-73 -87 -192 -133.5t-244 -46.5q-237 0 -385 144.5t-148 383.5zM260 582h701v-2 q-6 145 -98.5 224t-244.5 79q-137 0 -237 -79.5t-121 -221.5z" />
<glyph unicode="f" horiz-adv-x="782" d="M68 852v147h198v80q0 173 90 270t250 97q120 0 230 -74l-70 -125q-85 51 -156 51q-85 0 -131.5 -54t-46.5 -165v-80h318v-147h-318v-852h-168l2 -2v854h-198z" />
<glyph unicode="g" horiz-adv-x="1251" d="M92 535q0 97 30.5 180t83 141t121 99.5t145 61t155.5 19.5q74 0 153.5 -19.5t132.5 -55.5l109 131l119 -95l-115 -135q66 -74 98.5 -148.5t32.5 -178.5q0 -139 -72.5 -253t-212.5 -159q142 -41 210.5 -128t68.5 -202q0 -95 -44.5 -171.5t-119.5 -124.5t-168.5 -73.5 t-195.5 -25.5q-234 0 -379 116q-140 113 -140 305v11h162q0 -94 52.5 -158.5t131 -92t175.5 -28.5q69 0 130 13t113 40.5t82.5 75.5t30.5 111q0 117 -102 180.5t-252 63.5q-241 0 -388 133.5t-147 366.5zM258 535q3 -167 107.5 -260t263.5 -93t261.5 101t102.5 249 q0 111 -52.5 192.5t-134 120t-179.5 38.5q-69 0 -133.5 -22t-118 -63t-85.5 -109.5t-32 -153.5z" />
<glyph unicode="h" horiz-adv-x="1232" d="M154 0v1434h165v-2v-588q114 176 351 180q208 0 316 -125.5t108 -341.5v-557h-166v555q0 149 -74.5 230t-212.5 81q-137 0 -228 -95t-91 -234v-537h-168z" />
<glyph unicode="i" horiz-adv-x="475" d="M129 1321q0 41 23 69q24 30 56 36q16 3 31 2q17 0 33 -3q32 -7 55 -35.5t23 -70.5q0 -41 -23 -69q-23 -30 -55 -36q-16 -3 -32 -3q-17 0 -33 4q-32 7 -55 35.5t-23 70.5zM154 0h168v1016h-168v-1016z" />
<glyph unicode="j" horiz-adv-x="475" d="M-178 -446q98 -58 201 -58q162 0 231 95q68 92 68 266v10v1147h-166h-2v-1147q0 -52 -5 -86.5t-19 -65t-42.5 -45.5t-73.5 -16q-69 0 -137 35zM129 1327q0 41 23 69.5t56 35.5q15 3 31 3t33 -4q32 -7 55 -35.5t23 -70.5q0 -41 -23 -69.5t-55 -35.5q-16 -3 -32 -3t-33 4 q-32 7 -55 35.5t-23 70.5z" />
<glyph unicode="k" horiz-adv-x="1015" d="M154 0v1434h165v-848l416 426h209v-11l-467 -466l524 -523v-12h-204l-478 477v-477h-165z" />
<glyph unicode="l" horiz-adv-x="499" d="M166 0v1434h168v-1434h-168z" />
<glyph unicode="m" horiz-adv-x="1884" d="M154 0v1012l2 -2h155l11 -148q43 84 124 125t175 41q74 0 137.5 -20.5t119.5 -72t83 -128.5q53 112 147.5 166.5t208.5 54.5q199 0 312.5 -121t113.5 -329v-578h-168v578q0 128 -70 210t-192 82q-123 0 -200 -85t-77 -212v-573h-168v573q0 128 -74.5 212.5t-197.5 84.5 q-122 0 -198 -85t-76 -212v-573h-168z" />
<glyph unicode="n" horiz-adv-x="1245" d="M154 0v1012v2h153l8 -162q128 176 347 176q197 0 320.5 -125.5t123.5 -343.5v-559h-168v557q0 147 -81.5 231t-225.5 84q-136 -1 -224 -96t-88 -233v-543h-165z" />
<glyph unicode="o" horiz-adv-x="1226" d="M88 504q0 233 148.5 381.5t375.5 148.5q232 0 379.5 -148t147.5 -382q0 -229 -148.5 -375.5t-378.5 -146.5q-228 0 -376 146.5t-148 375.5zM256 504q0 -160 100.5 -262.5t255.5 -102.5q157 0 258 102.5t103 262.5q0 167 -102.5 272t-256.5 105q-156 0 -257 -104.5 t-101 -272.5z" />
<glyph unicode="p" horiz-adv-x="1304" d="M154 -477v1485h159l9 -195q59 100 163.5 156.5t225.5 56.5q221 -5 362 -148t141 -374q0 -238 -142.5 -382.5t-371.5 -144.5q-116 0 -221 52t-162 153v-659h-163zM336 500q0 -156 100.5 -260t253.5 -105q156 0 256.5 99t100.5 266t-99.5 264.5t-257.5 97.5 q-157 0 -255.5 -102.5t-98.5 -259.5z" />
<glyph unicode="q" horiz-adv-x="1302" d="M90 508q0 232 141.5 375.5t362.5 146.5q121 0 225.5 -56.5t163.5 -156.5l6 195h160v-1489h-166h4v659q-57 -100 -162 -151t-221 -51q-229 0 -371.5 144t-142.5 384zM262 506q0 -167 100 -266t256 -99l3 2q152 0 252 103.5t100 259.5q0 157 -99 259.5t-256 102.5 q-158 0 -257 -97.5t-99 -264.5z" />
<glyph unicode="r" horiz-adv-x="876" d="M154 0v1012h155l2 2l13 -152q90 168 311 168h10q126 0 225 -76l-75 -143q-79 55 -177 55q-125 -2 -210.5 -84.5t-85.5 -218.5v-563h-168z" />
<glyph unicode="s" horiz-adv-x="1021" d="M70 166l96 117q64 -79 161 -117.5t199 -38.5q45 0 87 8t80.5 24.5t62.5 48.5q26 34 26 79q0 75 -68 109q-70 34 -204 50q-67 9 -118 19.5t-107.5 32t-93 51t-61 78t-24.5 114.5q0 75 35 133q36 60 96.5 93.5t131.5 50.5q67 16 139 16h8q235 0 385 -135l-96 -111l-2 -2 q-62 56 -130.5 77.5t-154.5 21.5h-11q-102 0 -169 -37q-70 -38 -70 -109q0 -39 22 -67q20 -28 58 -44t78.5 -25t93.5 -15q39 -5 64 -8.5t64 -11t65.5 -15.5t60.5 -21t57 -28.5t47 -38t37.5 -49t22.5 -61.5q8 -32 8 -68v-8q-2 -98 -61.5 -168t-153 -103t-209.5 -33 q-298 0 -452 191z" />
<glyph unicode="t" horiz-adv-x="813" d="M68 866v144h202v278l168 19v-297h314v-144h-316v-534q0 -95 36.5 -145t123.5 -50q69 0 141 37l49 -139q-101 -46 -196 -49h-10q-152 0 -230 86q-80 90 -80 260v534h-202z" />
<glyph unicode="u" horiz-adv-x="1247" d="M139 453v559h168v-557q0 -147 81.5 -231.5t225.5 -84.5q136 1 224 96.5t88 233.5v543h168v-1012h-156h2l-8 162q-128 -175 -352 -178q-197 0 -319 125.5t-122 343.5z" />
<glyph unicode="v" horiz-adv-x="1148" d="M55 1012h185l163 -396l172 -438l170 436l164 398h185l-426 -1014h-185z" />
<glyph unicode="w" horiz-adv-x="1718" d="M63 1012h187l272 -834l269 834h137l268 -834l272 834h185l-355 -1014h-192l-137 377l-109 368l-110 -368l-138 -377h-190z" />
<glyph unicode="x" horiz-adv-x="1013" d="M33 0v4l364 514l-340 488v6h187l262 -383l258 383h192v-6l-344 -488l371 -514v-4h-192l-285 410l-287 -410h-186z" />
<glyph unicode="y" horiz-adv-x="1128" d="M61 1012h191l199 -527l110 -288l109 286l223 529h184l-639 -1489h-180l211 491z" />
<glyph unicode="z" horiz-adv-x="964" d="M63 0v66l574 792h-539v154h785v-76l-570 -774h570v-162h-820z" />
<glyph unicode="{" horiz-adv-x="675" d="M74 528v129q38 0 66.5 13t45 32.5t26 48.5t12.5 56t3 59v283q0 188 87.5 265t283.5 40v-125q-117 23 -160 -18.5t-43 -167.5v-277v-39.5t-1.5 -37t-3.5 -37.5t-7 -34t-12 -33.5t-17.5 -28t-25 -26.5t-33.5 -20t-43 -16q31 -8 54.5 -22t38.5 -28t25.5 -38.5t15.5 -40.5 t7.5 -47t3 -46.5t0.5 -49.5v-289q0 -126 40.5 -163t162.5 -20v-129l-2 -2q-202 -33 -286.5 42t-84.5 264v294q0 32 -3 59t-12.5 56t-26 48.5t-45 32.5t-66.5 13z" />
<glyph unicode="|" horiz-adv-x="518" d="M176 -211v1698h166v-1698h-166z" />
<glyph unicode="}" horiz-adv-x="673" d="M76 -158v-4q124 -19 164.5 18t40.5 162v289q0 35 0.5 50.5t3 47t7.5 47.5t15 40.5t25 39t38.5 28.5t53.5 22q-31 9 -54.5 23t-38.5 28t-25.5 38t-15.5 40t-7.5 47.5t-3 47t-0.5 50.5v274q0 127 -43 168.5t-160 18.5v127q196 36 283 -41.5t87 -265.5v-281q0 -209 154 -209 v-127q-154 0 -154 -209v-295q0 -189 -84 -263.5t-286 -41.5v131z" />
<glyph unicode="~" horiz-adv-x="1302" d="M145 557q47 140 161 201t241 0l260 -127q153 -78 229 108l127 -49q-34 -94 -90 -151t-134.5 -71t-174.5 30l-264 129q-38 14 -68 17t-62 -5.5t-59.5 -41.5t-48.5 -89z" />
<glyph unicode="&#xa1;" horiz-adv-x="503" d="M129 887q0 44 24.5 74.5t59.5 37.5t70 0t59.5 -38t24.5 -76q0 -44 -24.5 -74.5t-59.5 -37.5t-70 0t-59.5 38t-24.5 76zM162 -440h180v1104h-180v-1104z" />
<glyph unicode="&#xa2;" horiz-adv-x="1124" d="M111 483q0 203 123.5 344t322.5 172v134h158v-134q172 -25 299 -149l-105 -107q-53 51 -125.5 80t-142.5 29q-154 0 -258 -101t-104 -268q0 -169 103.5 -268.5t258.5 -99.5q68 0 139.5 31.5t126.5 84.5l107 -120q-128 -125 -299 -146v-145h-158v147h-2 q-196 29 -320 167.5t-124 348.5z" />
<glyph unicode="&#xa3;" horiz-adv-x="1335" d="M119 0v166l4 -2q125 95 163.5 196t22.5 228h-188v151h155q-1 3 -10 39.5t-11.5 46t-9 41.5t-9 49.5t-5 44t-2.5 50.5q0 212 139 326t365 114q101 0 183.5 -21.5t148.5 -66.5t103.5 -123.5t39.5 -185.5h-159q-8 241 -316 241q-156 0 -245 -75t-89 -205q0 -26 2 -53 t7.5 -59t9 -50t12 -58t10.5 -51h492v-151h-459q40 -284 -151 -434h897v-158h-1100z" />
<glyph unicode="&#xa4;" horiz-adv-x="1239" d="M145 301l121 119q-71 108 -70 237t72 236l-123 121l123 125l121 -123q99 61 232 61q128 0 227 -61l123 123l123 -125l-119 -119q69 -107 68.5 -239t-70.5 -236l121 -119l-123 -123l-123 121q-95 -59 -230 -59q-129 0 -229 59l-121 -121zM338 657q0 -114 75.5 -198 t204.5 -84q130 0 204.5 83.5t74.5 198.5q0 75 -31 139t-96 106t-152 42q-129 0 -204.5 -85.5t-75.5 -201.5z" />
<glyph unicode="&#xa5;" horiz-adv-x="1427" d="M61 1427v7h205l443 -699l454 699h203v-7l-498 -743h252v-137h-325v-117h325v-135h-325v-295h-174v295h-320v135h320v117h-320v137h250z" />
<glyph unicode="&#xa6;" horiz-adv-x="532" d="M178 -182v747h176v-747h-176zM178 700v750h176v-750h-176z" />
<glyph unicode="&#xa7;" horiz-adv-x="1179" d="M115 162l112 112q129 -158 365 -155q51 0 99 8.5t91.5 25.5t71 48.5t29.5 72.5q1 37 -21 64t-67 43t-92.5 24.5t-114.5 14.5q-69 4 -131.5 15.5t-122.5 34.5t-103 55t-69 80.5t-25 107.5q0 68 50.5 132.5t136.5 92.5q-88 24 -135.5 84t-45.5 141q2 80 45 141t113 94 t147.5 49t159.5 15q121 0 231 -35t183 -112l-109 -96h-4q-67 54 -138.5 74t-168.5 20q-117 2 -201.5 -38t-83.5 -110q0 -121 281 -149q72 -6 129.5 -14.5t125 -30t111.5 -52t72 -82.5t23 -120q-4 -82 -58 -138t-137 -77q92 -27 144.5 -89t48.5 -145q-2 -68 -34.5 -122.5 t-81 -88t-111.5 -55.5t-123 -30.5t-119 -8.5q-147 0 -274 50.5t-199 148.5zM305 713q0 -41 31.5 -73.5t82.5 -50t113 -25.5t124 -0.5t113.5 24.5t83.5 51t32 78v-2q0 41 -31.5 75t-83 53t-113.5 28.5t-124 2.5t-113.5 -24.5t-83 -53.5t-31.5 -83z" />
<glyph unicode="&#xa8;" horiz-adv-x="983" d="M117 1366q0 41 22.5 69.5t54.5 35t64.5 0t55 -34t22.5 -68.5t-22.5 -69t-55 -34.5t-64.5 0t-54.5 34t-22.5 67.5zM588 1366q0 51 34 80.5t75.5 29.5t75.5 -29.5t34 -80.5t-34 -79.5t-75.5 -28.5t-75.5 28.5t-34 79.5z" />
<glyph unicode="&#xa9;" horiz-adv-x="1703" d="M109 719q0 154 50.5 289t144 237.5t236 161.5t316.5 59v-2q139 0 258 -38.5t206.5 -107t150 -161.5t93.5 -204.5t31 -233.5t-31 -233.5t-93.5 -205t-150 -163t-206.5 -108t-258 -38.5t-259.5 38.5t-209 108t-152 163t-95 205t-31.5 233.5zM264 717q0 -171 69 -308.5 t205.5 -220t317.5 -82.5t315.5 82.5t201.5 219.5t67 309q0 128 -39.5 239t-112 193.5t-184 130t-248.5 47.5q-182 0 -318 -82t-205 -219.5t-69 -308.5zM471 723q0 -177 117.5 -287t292.5 -110q168 0 288 120l-98 99q-82 -82 -188 -82q-111 0 -188 72t-77 184q0 115 77 187.5 t190 72.5q108 0 186 -78l100 94l-6 9q-120 120 -286 120q-174 0 -291 -112t-117 -289z" />
<glyph unicode="&#xaa;" horiz-adv-x="1030" d="M141 1104q0 160 98 252t246 92q72 0 137 -32.5t103 -90.5v111h133v-664h-133l-2 -2l-2 115q-36 -61 -102.5 -94t-137.5 -35q-148 0 -244 93t-96 255zM170 512v133h702v-133h-702zM289 1102q0 -95 59.5 -154t147.5 -59q57 0 101.5 23.5t67.5 61t34 83t0 91t-34.5 83 t-68.5 61t-102 23.5l4 -2q-89 0 -149 -58.5t-60 -152.5z" />
<glyph unicode="&#xab;" horiz-adv-x="915" d="M90 608l283 451h180l-281 -451l281 -452h-180zM358 608l283 451h180l-280 -451l280 -452h-180z" />
<glyph unicode="&#xac;" horiz-adv-x="1062" d="M150 606v154h753v-424h-153v270h-600z" />
<glyph unicode="&#xad;" horiz-adv-x="991" d="M98 508v160h733v-160h-733z" />
<glyph unicode="&#xae;" horiz-adv-x="1695" d="M109 715q0 123 31 234.5t93.5 205t150 162t206.5 107t258 38.5t258.5 -38.5t207 -107t149.5 -162t93 -205t31 -234.5q0 -153 -49.5 -288t-141 -238t-233.5 -162.5t-315 -59.5q-139 0 -258 38.5t-206.5 108t-150 163t-93.5 205t-31 233.5zM264 715v4q0 -128 39.5 -239 t112 -193.5t184 -130t248.5 -47.5t248.5 47.5t185 130t113 193t39.5 237.5q0 128 -39.5 239t-113 193.5t-185 130t-248.5 47.5t-248.5 -47.5t-184 -130.5t-112 -194t-39.5 -240zM565 342h142v266h133l213 -266h155v29l-219 256v-2q70 12 119 53t68 94.5t12 113.5 t-37.5 109.5t-91.5 82t-141 32.5h-353v-768zM707 729v248h211q36 0 64 -13.5t42 -35.5t20.5 -48.5t-1 -53t-22.5 -48.5t-43.5 -35.5t-64.5 -13.5h-206z" />
<glyph unicode="&#xaf;" horiz-adv-x="862" d="M72 1292v146h684v-146h-684z" />
<glyph unicode="&#xb0;" horiz-adv-x="677" d="M110.5 1216.5q-3.5 37.5 1 74.5t24 70.5t46.5 59t69 41t91 15.5t89.5 -15.5t67 -41t45.5 -59t23 -70.5t0.5 -74.5t-21.5 -71t-44.5 -59t-67.5 -41t-90 -15.5q-52 0 -95 15.5t-70.5 41t-46 59t-22 71zM217.5 1252.5q-0.5 -30.5 12 -57.5t41.5 -44.5t69 -17.5q38 0 66 17.5 t40.5 44.5t12.5 57.5t-13 57.5t-40.5 44.5t-65.5 17.5t-66.5 -17.5t-42 -44.5t-14 -57.5z" />
<glyph unicode="&#xb1;" horiz-adv-x="1085" d="M145 684v156h316v321h164v-321h315v-156h-315v-324h-164v324h-316zM154 70v155h780v-155h-780z" />
<glyph unicode="&#xb2;" horiz-adv-x="745" d="M86 846v178q0 56 22 99t60.5 68t83.5 39t98 19q85 7 131.5 33.5t46.5 87.5q0 111 -153 111q-150 0 -152 -107h-133l2 -2q0 60 24.5 105.5t66 70.5t90 37t102.5 12q60 0 110 -11.5t92 -37t65.5 -71.5t23.5 -109q0 -41 -10 -74t-25.5 -55.5t-40.5 -40t-47.5 -27t-54 -17 t-52.5 -10t-51 -5.5q-162 -14 -162 -117v-43h432v-133h-569z" />
<glyph unicode="&#xb3;" horiz-adv-x="745" d="M72 1063h139h-4q9 -102 158 -102q65 0 113 24t48 84q0 41 -37.5 74t-117.5 33h-115v110h106q152 0 154 98q0 37 -38 69t-113 32q-28 0 -52.5 -4.5t-49 -15.5t-40 -33.5t-18.5 -53.5h-121q0 57 24 100.5t64.5 68.5t88.5 37.5t101 12.5q74 0 137 -22.5t105.5 -72.5 t42.5 -120q0 -56 -29 -98t-79 -57q58 -16 92.5 -62.5t34.5 -95.5q0 -64 -27 -111.5t-73 -73t-96.5 -37t-107.5 -11.5q-56 0 -105 12.5t-91.5 38t-67.5 71t-26 105.5z" />
<glyph unicode="&#xb4;" horiz-adv-x="473" d="M41 1163v11l152 260h206v-7l-204 -264h-154z" />
<glyph unicode="&#xb5;" horiz-adv-x="1255" d="M121 -455v1467h166v-596q0 -141 94 -225.5t217 -86.5q59 0 113 20.5t99 60.5t72 106.5t27 150.5v570h166v-1012h-147l-15 125q-43 -83 -135.5 -127t-187.5 -41q-102 0 -190.5 39.5t-123.5 126.5v-578h-155z" />
<glyph unicode="&#xb6;" horiz-adv-x="1660" d="M68 903q1 80 22 156.5t65 144t105 118.5t148 80.5t188 29.5h993v-160h-205v-1712h-163v1712h-492v-1714h-168v821q-97 4 -178.5 35.5t-139 82t-98 116.5t-59.5 139.5t-18 150.5z" />
<glyph unicode="&#xb7;" horiz-adv-x="512" d="M141 580q0 54 36 84.5t79 30.5t79 -30.5t36 -84.5t-36 -84.5t-79 -30.5t-79 30.5t-36 84.5z" />
<glyph unicode="&#xb8;" horiz-adv-x="686" d="M53 -332l80 72q55 -75 152 -72q40 0 72 18t42 52q18 59 -39.5 93t-142.5 3l-35 27l-6 -2l53 186h125l-28 -113q51 1 91 -12t62.5 -35t37 -51t15 -59.5t-3.5 -61.5q-19 -82 -87.5 -125t-155.5 -41q-73 2 -135.5 32.5t-96.5 88.5z" />
<glyph unicode="&#xb9;" horiz-adv-x="522" d="M76 846v117h129v471l-111 -29v119l246 59v-620h131v-117h-395z" />
<glyph unicode="&#xba;" horiz-adv-x="987" d="M143 1102q0 161 98.5 252.5t250.5 91.5q151 0 249.5 -91.5t98.5 -250.5q0 -161 -99 -255.5t-247 -94.5q-152 0 -251.5 93t-99.5 255zM164 498v133h665v-133h-665zM287 1104q0 -97 56.5 -156t150.5 -59q93 0 149.5 58.5t56.5 154.5t-59.5 156.5t-148.5 60.5 q-88 0 -146.5 -60.5t-58.5 -154.5z" />
<glyph unicode="&#xbb;" horiz-adv-x="915" d="M96 160l279 450l-279 451h178l283 -451l-283 -450h-178zM365 160l278 450l-278 451h178l282 -451l-282 -450h-178z" />
<glyph unicode="&#xbc;" horiz-adv-x="1529" d="M98 700v117h129v469l-110 -26v118l245 60v-621h132v-117h-396zM285 -4l772 1448h160l-777 -1448h-155zM838 260l354 479h178v-469h88v-120h-88v-148h-131v148h-393zM985 270h254v340z" />
<glyph unicode="&#xbd;" horiz-adv-x="1630" d="M98 700v117h127v471l-110 -26v118l247 60v-623h132v-117h-396zM281 -4l774 1448h159l-776 -1448h-157zM967 -2v178q0 54 21 95.5t57 66.5t79 39t93 18q91 9 140.5 35.5t49.5 89.5q0 111 -156 111q-149 0 -149 -107h-133h2q0 60 24.5 105.5t66 71t89.5 37.5t102 12 q60 0 110 -12t92 -37.5t65.5 -71t23.5 -107.5q0 -41 -10.5 -74.5t-25.5 -55.5t-41.5 -39.5t-47 -27t-55 -17t-52 -9.5t-50.5 -6q-158 -14 -158 -117v-53h426v-125h-563z" />
<glyph unicode="&#xbe;" horiz-adv-x="1599" d="M86 938h133q9 -100 154 -100q28 0 53 4.5t50 15t39.5 33t14.5 53.5q0 39 -37.5 71t-115.5 32h-113l-4 2v108h105q149 0 149 96q0 36 -37.5 67.5t-111.5 31.5q-37 0 -67.5 -7.5t-57 -32.5t-29.5 -65h-119q0 73 42 123t102 70t131 20q72 0 133 -21.5t102.5 -70.5t42.5 -117 q0 -55 -28.5 -96.5t-77.5 -54.5q57 -14 90 -60t33 -94q0 -63 -26 -109.5t-70 -71.5t-93.5 -36.5t-105.5 -11.5q-53 0 -101 12t-89 36.5t-65.5 69t-25.5 103.5zM381 -4l774 1450h160l-778 -1450h-156zM909 262l355 479h178v-469h86v-120h-86v-148h-131v148h-393zM1057 272 h254v340z" />
<glyph unicode="&#xbf;" horiz-adv-x="1232" d="M72 2q0 71 22.5 130.5t48.5 95t79 72t78.5 49t83.5 38.5l9 4.5t8 3.5t9 4q107 40 138.5 94.5t31.5 194.5h178q0 -84 -11 -147t-31.5 -107.5t-56 -78.5t-77 -56.5t-101.5 -44.5q-54 -21 -85 -37t-68 -45.5t-54.5 -71.5t-17.5 -98q0 -63 23 -110.5t58.5 -75t86.5 -45 t98.5 -23.5t102.5 -6q65 0 125.5 14t115 43.5t88.5 83.5t35 125h182l-2 -2q0 -89 -31 -162t-83 -121.5t-122.5 -81.5t-148 -47.5t-161.5 -13.5q-87 0 -164 13t-149.5 44t-124.5 78t-83 120.5t-30 166.5zM551 922q0 32 13 57.5t33.5 38.5t45.5 19t50 0t45.5 -19t33 -38.5 t12.5 -57.5t-13 -57.5t-33.5 -38.5t-45.5 -19t-50 0t-45.5 19t-33 38.5t-12.5 57.5z" />
<glyph unicode="&#xc0;" d="M35 0l643 1434h201l643 -1434h-193l-141 315h-819l-140 -315h-194zM438 479h680l-340 774zM496 1845v6h206l152 -260v-10h-154z" />
<glyph unicode="&#xc1;" d="M35 0l643 1434h201l643 -1434h-193l-141 315h-819l-140 -315h-194zM438 479h680l-340 774zM690 1579v10l154 262h205v-6l-205 -266h-154z" />
<glyph unicode="&#xc2;" d="M35 0l643 1434h201l643 -1434h-193l-141 315h-819l-140 -315h-194zM426 1544v15l297 276h106l297 -276v-15h-174l-176 164l-176 -164h-174zM438 479h680l-340 774z" />
<glyph unicode="&#xc3;" d="M35 0l643 1434h201l643 -1434h-193l-141 315h-819l-140 -315h-194zM438 479h680l-340 774zM469 1638l2 2q24 93 92.5 134.5t155.5 11.5q12 -3 57.5 -26.5t54.5 -26.5q87 -31 119 55l113 -47q-25 -103 -96.5 -142t-149.5 -8q-14 3 -60 29t-55 29q-32 17 -67.5 2t-54.5 -64 z" />
<glyph unicode="&#xc4;" d="M35 0l643 1434h201l643 -1434h-193l-141 315h-819l-140 -315h-194zM432 1673q0 41 22.5 68.5t55 34t64.5 0t54.5 -35t22.5 -69.5q0 -40 -22.5 -67.5t-54.5 -34t-64.5 0t-55 34.5t-22.5 69zM438 479h680l-340 774zM903 1671q0 51 34 80.5t75.5 29.5t75.5 -29.5t34 -80.5 t-34 -79.5t-75.5 -28.5t-75.5 28.5t-34 79.5z" />
<glyph unicode="&#xc5;" d="M35 0l639 1421q-63 24 -99 75t-36 126q0 103 71 162t170 59q97 0 169.5 -58.5t72.5 -162.5q0 -74 -37.5 -126t-101.5 -75l639 -1421h-189l-143 315h-823l-140 -315h-192zM444 485h676l-338 793zM664 1589.5q7 -33.5 38 -57t76 -23.5q34 0 60.5 12.5t40 32.5t20 44.5 t-0.5 49t-21 44.5t-40.5 32.5t-60.5 12.5h4q-46 0 -77 -23.5t-38.5 -57t-0.5 -67z" />
<glyph unicode="&#xc6;" horiz-adv-x="1886" d="M-35 0l889 1434h903v-170h-680v-461h647v-168h-647v-461h699v-174h-869v410h-485l-248 -410h-209zM522 571h385v523l2 143z" />
<glyph unicode="&#xc7;" horiz-adv-x="1454" d="M102 709q-2 145 45 277t137.5 238t237 169t328.5 63q145 0 281 -54.5t243 -160.5l-123 -115q-163 160 -401 160q-112 0 -206.5 -31.5t-161 -85.5t-112.5 -127.5t-68 -157t-21 -173.5q1 -89 23 -170.5t68 -153.5t111.5 -125t159.5 -84t207 -31q111 0 219 43t188 123 l125 -123q-205 -205 -508 -215l-26 -100l4 4q123 1 173 -66t30 -153q-19 -82 -88 -126t-154 -44q-72 0 -137.5 32t-100.5 91l82 72q54 -77 152 -74q40 2 71.5 20t41.5 50q18 59 -41.5 93t-145.5 3l-33 26l52 181q-128 12 -235.5 57t-183 113.5t-128.5 157.5t-78.5 189 t-26.5 208z" />
<glyph unicode="&#xc8;" horiz-adv-x="1333" d="M190 0v1434h1008v-164h-831v-449h796v-166h-796v-485h864v-170h-1041zM463 1862v4h207l151 -260v-11h-153z" />
<glyph unicode="&#xc9;" horiz-adv-x="1333" d="M190 0v1434h1008v-164h-831v-449h796v-166h-796v-485h864v-170h-1041zM592 1575v10l153 260h207v-6l-207 -264h-153z" />
<glyph unicode="&#xca;" horiz-adv-x="1333" d="M190 0v1434h1008v-164h-831v-449h796v-166h-796v-485h864v-170h-1041zM369 1577v14l295 275h106l297 -275v-14h-174l-176 162l-174 -162h-174z" />
<glyph unicode="&#xcb;" horiz-adv-x="1333" d="M190 0v1434h1008v-164h-831v-449h796v-166h-796v-485h864v-170h-1041zM375 1694q0 41 22.5 69.5t55 35t64.5 0t54.5 -34t22.5 -68.5t-22.5 -69t-55 -34.5t-64.5 0t-54.5 34t-22.5 67.5zM846 1694q0 51 34 80.5t75.5 29.5t75.5 -29.5t34 -80.5t-34 -79.5t-75.5 -28.5 t-75.5 28.5t-34 79.5z" />
<glyph unicode="&#xcc;" horiz-adv-x="561" d="M10 1845v6h207l154 -260v-10h-156zM190 0v1434h181v-1434h-181z" />
<glyph unicode="&#xcd;" horiz-adv-x="561" d="M190 0h181v1434h-181v-1434zM195 1579v10l153 260h207v-6l-207 -264h-153z" />
<glyph unicode="&#xce;" horiz-adv-x="561" d="M-53 1554v15l280 274h103l280 -274v-15h-168l-163 162l-162 -162h-170zM190 0v1434h181v-1434h-181z" />
<glyph unicode="&#xcf;" horiz-adv-x="561" d="M-20 1675q0 51 34 80.5t75.5 29.5t75.5 -29.5t34 -80.5t-34 -79.5t-75.5 -28.5t-75.5 28.5t-34 79.5zM190 -2h181v1434h-181v-1434zM358 1673q0 41 22.5 69.5t55 35t65 0t55 -34t22.5 -68.5t-22.5 -69t-55 -34.5t-65 0t-55 34t-22.5 67.5z" />
<glyph unicode="&#xd0;" horiz-adv-x="1544" d="M61 627v159h142v648h504q176 0 318 -57.5t231 -155t136.5 -221t49.5 -261.5q1 -116 -26 -222.5t-86 -201t-144 -164.5t-208.5 -110.5t-270.5 -40.5h-504v627h-142zM381 170h326q138 0 247 46t175 125t100 179t33 215q-2 112 -37.5 207t-102.5 168t-173.5 114.5 t-241.5 41.5h-326v-480h307v-159h-307v-457z" />
<glyph unicode="&#xd1;" horiz-adv-x="1560" d="M190 0v1434h125l875 -1086v1086h180v-1434h-123l-872 1079v-1079h-185zM512 1640q24 93 92.5 134.5t155.5 11.5q11 -3 56.5 -26t55.5 -25q87 -31 117 55l113 -49q-24 -101 -94 -139t-146 -7q-13 3 -58 28t-56 28q-33 17 -68 2.5t-53 -62.5l-109 49h-6z" />
<glyph unicode="&#xd2;" horiz-adv-x="1656" d="M100 713q0 209 87 377t255 268t389 100q141 -1 261 -42t204.5 -112t144 -165.5t88 -202.5t27.5 -223q-1 -114 -29 -221t-87 -202t-143 -166t-204.5 -112t-263.5 -41t-264 41t-205.5 111.5t-144 165.5t-87.5 202t-28 222zM281 713q1 -87 22 -169t65 -155.5t107 -128.5 t154.5 -87t201.5 -32t201.5 32t154.5 87t106.5 128.5t64 154.5t20.5 168l2 2q1 112 -32.5 213.5t-98.5 184t-172 132.5t-243 51q-133 0 -240.5 -46.5t-175.5 -126.5t-103.5 -185t-33.5 -223zM575 1866v6h207l152 -260v-10h-154z" />
<glyph unicode="&#xd3;" horiz-adv-x="1658" d="M100 713q0 -115 28 -223t87.5 -203t144 -165.5t205.5 -111.5t264 -41t264 41t205 112t143.5 166t88 202t29.5 221q1 116 -27.5 224t-88 203t-144.5 166t-205.5 112t-262.5 42q-221 0 -389 -100t-255 -268t-87 -377zM279 709q-2 118 34 223t104 185t175 126.5t239 46.5 q109 -1 200.5 -33.5t155 -87.5t107.5 -129t64.5 -157t19.5 -172q-1 -110 -34.5 -210t-98.5 -182t-172.5 -131t-243.5 -49q-110 0 -201.5 32t-154.5 87t-106.5 128.5t-64 155.5t-21.5 169zM745 1595v11l152 262h207v-6l-205 -267h-154z" />
<glyph unicode="&#xd4;" horiz-adv-x="1656" d="M100 713q0 209 87 377t255 268t389 100q141 -1 261 -42t204.5 -112t144 -165.5t88 -202.5t27.5 -223q-1 -114 -29 -221t-87 -202t-143 -166t-204.5 -112t-263.5 -41t-264 41t-205.5 111.5t-144 165.5t-87.5 202t-28 222zM281 713q1 -87 22 -169t65 -155.5t107 -128.5 t154.5 -87t201.5 -32t201.5 32t154.5 87t106.5 128.5t64 154.5t20.5 168l2 2q1 112 -32.5 213.5t-98.5 184t-172 132.5t-243 51q-133 0 -240.5 -46.5t-175.5 -126.5t-103.5 -185t-33.5 -223zM498 1593v13l297 276h106l297 -276v-13h-174l-176 162l-176 -162h-174z" />
<glyph unicode="&#xd5;" horiz-adv-x="1656" d="M100 713q0 209 87 377t255 268t389 100q141 -1 261 -42t204.5 -112t144 -165.5t88 -202.5t27.5 -223q-1 -114 -29 -221t-87 -202t-143 -166t-204.5 -112t-263.5 -41t-264 41t-205.5 111.5t-144 165.5t-87.5 202t-28 222zM281 713q1 -87 22 -169t65 -155.5t107 -128.5 t154.5 -87t201.5 -32t201.5 32t154.5 87t106.5 128.5t64 154.5t20.5 168l2 2q1 112 -32.5 213.5t-98.5 184t-172 132.5t-243 51q-133 0 -240.5 -46.5t-175.5 -126.5t-103.5 -185t-33.5 -223zM545 1663q23 93 92 134t154 11q11 -3 56.5 -26t55.5 -25q33 -15 67 -1.5t50 59.5 l113 -50q-24 -101 -94 -138.5t-146 -6.5q-12 3 -58.5 28t-58.5 27q-85 30 -119 -61l-108 49h-4z" />
<glyph unicode="&#xd6;" horiz-adv-x="1658" d="M100 711q0 -115 28 -223t87.5 -203t144 -165.5t205.5 -111.5t264 -41t264 41t205 112t143.5 166t88 202t29.5 221q1 116 -27.5 224t-88 203t-144.5 166t-205.5 112t-262.5 42q-221 0 -389 -100t-255 -268t-87 -377zM279 707q-2 118 34 223t104 185t175 126.5t239 46.5 q109 -1 200.5 -33.5t155 -87.5t107.5 -129t64.5 -157t19.5 -172q-1 -110 -34.5 -210t-98.5 -182t-172.5 -131t-243.5 -49q-110 0 -201.5 32t-154.5 87t-106.5 128.5t-64 155.5t-21.5 169zM506 1698q0 51 34 80.5t75.5 29.5t75.5 -29.5t34 -80.5t-34 -79.5t-75.5 -28.5 t-75.5 28.5t-34 79.5zM973 1696q0 41 22.5 69.5t54.5 35t64.5 0t55 -34t22.5 -68.5t-22.5 -69t-55 -34.5t-64.5 0t-54.5 34t-22.5 67.5z" />
<glyph unicode="&#xd7;" horiz-adv-x="942" d="M129 424l233 233l-229 228l111 106l225 -227l227 227l109 -106l-232 -234l236 -233l-107 -103l-231 234l-231 -234z" />
<glyph unicode="&#xd8;" horiz-adv-x="1658" d="M102 715q0 146 46 277.5t134 237t230 168t319 62.5q175 0 318 -65l96 168h180l-145 -244q136 -103 207.5 -263.5t71.5 -342.5q-1 -114 -29 -221t-87 -202t-143 -166t-205 -112t-264 -41q-165 0 -303 56l-106 -183h-176l149 256v2q-144 100 -218.5 262.5t-74.5 350.5z M283 713q0 -135 52 -256.5t150 -198.5l576 991q-102 45 -227 45q-137 0 -245.5 -49t-174.5 -131.5t-99.5 -185t-31.5 -215.5zM616 178q96 -35 218 -35q110 0 201.5 32t154 87t106.5 128.5t64 154.5t20 168q0 133 -47.5 253t-140.5 201z" />
<glyph unicode="&#xd9;" horiz-adv-x="1517" d="M174 571v861h180v-861q0 -138 56.5 -237t147.5 -146t204 -47q84 0 156 28.5t126.5 82t85.5 136t31 185.5v861h180l2 -2v-861q0 -145 -46.5 -260.5t-127 -188t-184.5 -111t-223 -38.5q-117 0 -221 38t-187 110t-131.5 188.5t-48.5 261.5zM520 1855v7h207l152 -260v-11 h-154z" />
<glyph unicode="&#xda;" horiz-adv-x="1519" d="M174 573q0 -145 48.5 -261.5t131.5 -188.5t188 -110t222 -38q119 0 223 38.5t185 111t127.5 188t46.5 260.5v861h-181l-4 -2v-861q0 -202 -113 -316t-286 -114q-175 0 -291.5 113t-116.5 319v861h-180v-861zM662 1591v11l151 260h207v-7l-205 -264h-153z" />
<glyph unicode="&#xdb;" horiz-adv-x="1515" d="M174 571v861h180v-861q0 -138 56.5 -237t147.5 -146t204 -47q84 0 156 28.5t126.5 82t85.5 136t31 185.5v861h180v-861l2 -2q0 -145 -46.5 -260.5t-127 -188t-184.5 -111t-223 -38.5q-117 0 -221 38t-187 110t-131.5 188.5t-48.5 261.5zM412 1581v14l295 275h108 l295 -275v-14h-174l-176 162l-174 -162h-174z" />
<glyph unicode="&#xdc;" horiz-adv-x="1519" d="M174 571q0 -145 48.5 -261.5t131.5 -188.5t188 -110t222 -38q119 0 223 38.5t185 111t127.5 188t46.5 260.5v859h-181l-4 -3v-858q0 -202 -113 -316t-286 -114q-175 0 -291.5 113t-116.5 319v859h-180v-859zM428 1692q0 51 34 80.5t75.5 29.5t75.5 -29.5t34 -80.5 t-34 -79.5t-75.5 -28.5t-75.5 28.5t-34 79.5zM897 1690q0 41 22.5 69.5t55 35t64.5 0t54.5 -34t22.5 -68.5t-22.5 -69t-55 -34.5t-64.5 0t-54.5 34t-22.5 67.5z" />
<glyph unicode="&#xdd;" horiz-adv-x="1392" d="M47 1427l555 -845v-582h184v582l566 845v7h-217l-441 -680l-430 680h-217v-7zM592 1585v10l153 260h205v-4l-205 -266h-153z" />
<glyph unicode="&#xde;" horiz-adv-x="1400" d="M190 0h3v1432h176v-242h473q106 0 194.5 -32.5t146 -87.5t97.5 -126t48.5 -149.5t0 -157t-49 -149.5t-98 -126t-146.5 -87.5t-195 -32.5h-471v-242h-179zM371 406h471q76 0 137 26.5t98.5 70t58 98.5t20.5 113t-20.5 113t-58 98.5t-98.5 70t-137 26.5h-471v-616z" />
<glyph unicode="&#xdf;" horiz-adv-x="1251" d="M154 0v1057v2q0 98 38 176t102 125.5t143.5 72.5t168.5 25q94 0 175 -23t145.5 -68.5t101.5 -120t37 -171.5q0 -100 -60 -177t-163 -101q163 -36 242 -142.5t79 -246.5q0 -116 -41 -204t-110 -137.5t-159 -72.5t-189.5 -16t-200.5 40v154q108 -41 206.5 -43.5t168.5 29 t111.5 94.5t41.5 147q0 69 -22 123.5t-59 89.5t-87.5 57.5t-104 32t-112.5 9.5h-139v155h131q51 0 98.5 9t93.5 30.5t74 64t29 101.5q1 66 -24.5 113t-69 71t-90 34.5t-99.5 10.5q-138 0 -207.5 -64.5t-74.5 -178.5l2 -1057h-176z" />
<glyph unicode="&#xe0;" horiz-adv-x="1304" d="M90 506q0 160 70 280.5t187.5 181.5t262.5 60q117 0 219 -52.5t156 -148.5l2 185h164v-1012h-162l-4 -4l-4 184q-57 -100 -159.5 -152.5t-213.5 -52.5q-146 0 -263 63t-186 185t-69 283zM254 500q0 -165 104 -268t258 -103q100 0 179 41t119.5 106t59.5 144t0 158.5 t-59 144.5t-118.5 106t-178.5 41l-2 -2q-154 0 -258 -101.5t-104 -266.5zM391 1446v4h207l154 -260v-10h-154z" />
<glyph unicode="&#xe1;" horiz-adv-x="1302" d="M90 508q0 -161 69 -282.5t186 -184t263 -61.5q112 0 215 52t160 152l4 -184h162v4v1012h-164l-2 -185q-53 96 -154 148.5t-219 52.5q-145 0 -262.5 -61.5t-187.5 -182t-70 -280.5zM258 510q0 165 104.5 267t258.5 102l-3 2q100 0 179 -41t119.5 -106.5t60 -144.5 t0.5 -158t-59.5 -144.5t-118.5 -106.5t-178 -41q-154 0 -258.5 103t-104.5 268zM512 1180v10l154 260h204v-6l-204 -264h-154z" />
<glyph unicode="&#xe2;" horiz-adv-x="1304" d="M90 506q0 160 70 280.5t187.5 181.5t262.5 60q117 0 219 -52.5t156 -148.5l2 185h164v-1012h-162l-4 -4l-4 184q-57 -100 -159.5 -152.5t-213.5 -52.5q-146 0 -263 63t-186 185t-69 283zM254 500q0 -165 104 -268t258 -103q100 0 179 41t119.5 106t59.5 144t0 158.5 t-59 144.5t-118.5 106t-178.5 41l-2 -2q-154 0 -258 -101.5t-104 -266.5zM301 1159v15l297 276h107l296 -276v-15h-174l-176 164l-176 -164h-174z" />
<glyph unicode="&#xe3;" horiz-adv-x="1304" d="M90 502q0 160 70 280.5t187.5 181.5t262.5 60q117 0 219 -52.5t156 -148.5l2 185h164v-1012h-162l-4 -4l-4 184q-57 -100 -159.5 -152.5t-213.5 -52.5q-146 0 -263 63t-186 185t-69 283zM254 496q0 -165 104 -268t258 -103q100 0 179 41t119.5 106t59.5 144t0 158.5 t-59 144.5t-118.5 106t-178.5 41l-2 -2q-154 0 -258 -101.5t-104 -266.5zM360 1286q23 93 92 134.5t154 11.5q11 -3 57 -26.5t56 -25.5q33 -15 67 -1.5t50 59.5l110 -47q-24 -101 -93.5 -139t-147.5 -7q-13 3 -59.5 29t-57.5 29q-33 15 -67 0.5t-52 -62.5l-109 49v-4z" />
<glyph unicode="&#xe4;" horiz-adv-x="1302" d="M90 506q0 -161 69 -283t186 -184.5t263 -61.5q112 0 215 52.5t160 152.5l4 -184h162v2v1010h-164l-2 -183q-53 96 -154 148.5t-219 52.5q-145 0 -262.5 -61.5t-187.5 -181.5t-70 -279zM258 506q0 165 104 266.5t259 101.5h-3q79 0 144.5 -25.5t108 -68t72.5 -98.5 t36.5 -117.5t0 -122.5t-35.5 -117t-71.5 -98.5t-108 -68t-143.5 -25.5q-154 0 -258.5 103t-104.5 270zM319 1356q0 51 34.5 80.5t75.5 29.5t75.5 -29.5t34.5 -80.5t-34.5 -79.5t-75.5 -28.5t-75.5 28.5t-34.5 79.5zM791 1354q0 41 22.5 69.5t55 35t64.5 0t54.5 -34 t22.5 -68.5t-22.5 -69t-55 -34.5t-64.5 0t-54.5 34t-22.5 67.5z" />
<glyph unicode="&#xe5;" horiz-adv-x="1304" d="M90 506q0 160 70 280.5t187.5 181.5t262.5 60q117 0 219 -52.5t156 -148.5l2 185h164v-1012h-162l-4 -4l-4 184q-57 -100 -159.5 -152.5t-213.5 -52.5q-146 0 -263 63t-186 185t-69 283zM254 500q0 -165 104 -268t258 -103q100 0 179 41t119.5 106t59.5 144t0 158.5 t-59 144.5t-118.5 106t-178.5 41l-2 -2q-154 0 -258 -101.5t-104 -266.5zM408 1356q0 99 69.5 155t165.5 56q97 0 168.5 -55.5t71.5 -155.5t-69.5 -156.5t-170.5 -56.5t-167 57t-66 156h-2zM523 1356.5q0 -40.5 31.5 -74t86.5 -33.5q47 0 78.5 22t38.5 53.5t-1 63.5t-40 54 t-78 22h2q-55 0 -86.5 -33.5t-31.5 -74z" />
<glyph unicode="&#xe6;" horiz-adv-x="2074" d="M90 504q0 160 70 280.5t187 181.5t261 60q118 0 221.5 -53t157.5 -148l2 185h131v-174q65 97 165 146.5t220 47.5q107 -1 203 -40t167.5 -111t105 -186.5t12.5 -254.5h-858q13 -138 114.5 -220.5t249.5 -82.5q91 0 182 34t140 93l110 -102q-73 -87 -192 -133.5 t-244 -46.5q-127 0 -224.5 49.5t-154.5 142.5l-4 -172h-129l2 -6v184q-57 -100 -161 -152.5t-216 -52.5q-146 0 -263 63t-186 185t-69 283zM256 496q0 -165 104 -268t258 -103q90 0 162.5 32t117 84t68.5 118.5t24 136t-24 136t-68.5 118.5t-117 84t-162.5 32v-2 q-154 0 -258 -101.5t-104 -266.5zM1137 575h698l-2 -2q-6 145 -97.5 224.5t-242.5 79.5q-137 0 -236 -80t-120 -222z" />
<glyph unicode="&#xe7;" horiz-adv-x="1060" d="M92 506q0 124 41.5 224t113.5 165t167.5 100t206.5 35q212 0 366 -151l-106 -111q-105 102 -256 102q-155 0 -259 -99t-104 -265q0 -171 103.5 -268t257.5 -97q160 0 264 107l112 -113v2q-152 -152 -368 -155l-25 -88q123 1 172 -65.5t29 -152.5q-19 -79 -85 -120 t-149 -43q-74 -2 -140 28.5t-101 89.5l80 72q52 -72 149 -72q41 0 72.5 17t40.5 49q18 59 -39.5 92.5t-142.5 3.5l-35 27l49 172q-184 32 -299 166.5t-115 347.5z" />
<glyph unicode="&#xe8;" horiz-adv-x="1200" d="M90 510q0 229 147.5 376.5t376.5 147.5q118 0 215 -37t168 -108.5t104 -186.5t19 -262h-856q13 -138 114 -220.5t249 -82.5q91 0 181.5 34t139.5 93l113 -102h-2q-73 -87 -192 -133.5t-244 -46.5q-237 0 -385 144.5t-148 383.5zM264 582h697v-2q-6 145 -98.5 224 t-244.5 79q-136 0 -234.5 -79.5t-119.5 -221.5zM385 1442v4h207l151 -260v-10h-153z" />
<glyph unicode="&#xe9;" horiz-adv-x="1198" d="M90 508q0 -239 148 -383.5t385 -144.5q125 0 244 46.5t192 133.5l-113 102q-49 -59 -139.5 -93t-181.5 -34q-148 0 -249 83t-114 222h856v-4q14 148 -19 263.5t-104 187.5t-168 108.5t-215 36.5q-227 0 -374.5 -147.5t-147.5 -376.5zM264 578v2q21 142 119.5 221.5 t234.5 79.5q152 0 244.5 -79t98.5 -224h-697zM508 1178v10l151 260h207v-4l-204 -266h-154z" />
<glyph unicode="&#xea;" horiz-adv-x="1200" d="M90 510q0 229 147.5 376.5t376.5 147.5q118 0 215 -37t168 -108.5t104 -186.5t19 -262h-856q13 -138 114 -220.5t249 -82.5q91 0 181.5 34t139.5 93l113 -102h-2q-73 -87 -192 -133.5t-244 -46.5q-237 0 -385 144.5t-148 383.5zM264 582h697v-2q-6 145 -98.5 224 t-244.5 79q-136 0 -234.5 -79.5t-119.5 -221.5zM281 1157v14l297 275h106l297 -275v-14h-174l-176 162l-176 -162h-174z" />
<glyph unicode="&#xeb;" horiz-adv-x="1198" d="M90 504q0 -239 148 -384t385 -145q124 0 243 47t193 134l-113 104q-49 -59 -139.5 -93t-181.5 -34q-148 0 -249 82.5t-114 220.5h856v-4q14 148 -19 263.5t-104 187.5t-168 108.5t-215 36.5q-227 0 -374.5 -147.5t-147.5 -376.5zM264 575q21 142 119.5 222t234.5 80 q152 0 244.5 -79t98.5 -223h-697zM303 1333q0 41 22.5 69.5t54.5 35t64.5 0t55 -34t22.5 -68.5t-22.5 -69t-55 -34.5t-64.5 0t-54.5 34t-22.5 67.5zM739 1333q0 51 34 80.5t75.5 29.5t75.5 -29.5t34 -80.5t-34 -79.5t-75.5 -28.5t-75.5 28.5t-34 79.5z" />
<glyph unicode="&#xec;" horiz-adv-x="479" d="M43 1427v7h184l103 -265v-10h-144zM154 0v997h172v-997h-172z" />
<glyph unicode="&#xed;" horiz-adv-x="481" d="M152 1159v10l102 265h182v-7l-141 -268h-143zM154 0h174v997h-174v-997z" />
<glyph unicode="&#xee;" horiz-adv-x="481" d="M-25 1155v14l232 269h88l225 -269v-14h-147l-123 152l-125 -152h-150zM154 0v997h174v-997h-174z" />
<glyph unicode="&#xef;" horiz-adv-x="481" d="M-20 1331q0 40 22 67t53 33t62.5 0t53.5 -33t22 -67t-22 -67t-53.5 -33t-62.5 0t-53 33t-22 67zM154 2h174v997h-174v-997zM305 1331q0 40 22 67t53.5 33t62.5 0t53 -33t22 -67t-22 -67t-53 -33t-62.5 0t-53.5 33t-22 67z" />
<glyph unicode="&#xf0;" horiz-adv-x="1230" d="M90 487q0 92 30 178t86.5 156t148 115.5t204.5 52.5q99 7 201.5 -25t181.5 -118q-23 70 -77 137t-106 109t-108 75l-76 -98l-90 59l70 97q-71 41 -193 69l37 138q142 -34 252 -89l92 123l93 -63l-86 -115q202 -146 291.5 -338t91.5 -434q2 -239 -139.5 -387.5 t-381.5 -148.5q-126 0 -227.5 43t-164.5 115t-96.5 161.5t-33.5 187.5zM262 489q0 -69 22.5 -132t64.5 -114t110.5 -81.5t152.5 -30.5q111 0 194.5 52.5t124 133t40.5 172.5q0 91 -40.5 171t-124 133t-194.5 53q-84 0 -152.5 -30.5t-110.5 -81.5t-64.5 -114t-22.5 -131z" />
<glyph unicode="&#xf1;" horiz-adv-x="1245" d="M154 2v1012v2h153l8 -162q128 176 347 176q197 0 320.5 -125.5t123.5 -343.5v-559h-168v557q0 147 -81.5 231t-225.5 84q-136 -1 -224 -96t-88 -233v-543h-165zM334 1296q24 89 92.5 129t153.5 11q12 -3 58 -26.5t58 -25.5q31 -13 64 0t49 54l111 -47q-24 -97 -94 -134 t-148 -8q-12 3 -59 29t-60 27q-36 12 -67.5 -2t-47.5 -58l-108 49z" />
<glyph unicode="&#xf2;" horiz-adv-x="1218" d="M90 504q0 230 146 378t372 148t373 -148t147 -378t-145.5 -376t-374.5 -146q-228 0 -373 146t-145 376zM258 504q0 -160 97.5 -262.5t252.5 -102.5q156 0 254.5 102.5t98.5 262.5h2q0 160 -100.5 266.5t-252.5 106.5q-154 0 -253 -106t-99 -267zM365 1440v6h206l152 -256 v-10h-154z" />
<glyph unicode="&#xf3;" horiz-adv-x="1216" d="M90 504q0 -230 145 -376t373 -146t373 146t145 376h2q0 230 -147 378t-373 148t-372 -148t-146 -378zM258 504h2q0 161 99 267t253 106q151 0 251 -106.5t100 -266.5t-98.5 -262.5t-254.5 -102.5t-254 102.5t-98 262.5zM514 1171v11l150 252h204v-7l-202 -256h-152z" />
<glyph unicode="&#xf4;" horiz-adv-x="1216" d="M90 504q0 -230 145 -376t373 -146t373 146t145 376h2q0 230 -147 378t-373 148t-372 -148t-146 -378zM258 504h2q0 161 99 267t253 106q151 0 251 -106.5t100 -266.5t-98.5 -262.5t-254.5 -102.5t-254 102.5t-98 262.5zM264 1159v15l297 274h107l297 -274v-15h-174 l-177 162l-176 -162h-174z" />
<glyph unicode="&#xf5;" horiz-adv-x="1216" d="M90 506q0 230 146 378t372 148t373 -148t147 -378t-145.5 -376t-374.5 -146q-228 0 -373 146t-145 376zM258 506q0 -160 97.5 -262.5t252.5 -102.5q156 0 254.5 102.5t98.5 262.5h2q0 160 -100.5 266.5t-252.5 106.5q-154 0 -253 -106t-99 -267zM324 1286q23 90 91.5 130 t153.5 11q13 -3 61 -26.5t60 -24.5q35 -12 66 1.5t45 56.5l112 -48q-24 -100 -93.5 -137t-145.5 -6q-13 3 -58.5 26.5t-56.5 26.5q-90 31 -125 -61l-108 49z" />
<glyph unicode="&#xf6;" horiz-adv-x="1216" d="M90 502q0 -230 145 -376t373 -146t373 146t145 376h2q0 230 -147 378t-373 148t-372 -148t-146 -378zM258 502h2q0 161 99 266.5t253 105.5q151 0 251 -106t100 -266t-98.5 -262.5t-254.5 -102.5t-254 102.5t-98 262.5zM289 1321q0 51 34 80.5t75.5 29.5t75.5 -29.5 t34 -80.5t-34 -79.5t-75.5 -28.5t-75.5 28.5t-34 79.5zM719 1319q0 41 22.5 69.5t55 35t64.5 0t54.5 -34t22.5 -68.5t-22.5 -69t-55 -34.5t-64.5 0t-54.5 34t-22.5 67.5z" />
<glyph unicode="&#xf7;" horiz-adv-x="1155" d="M143 592h869v166h-869v-166zM471 326q0 51 34 80.5t75.5 29.5t75.5 -29.5t34 -80.5t-34 -79.5t-75.5 -28.5t-75.5 28.5t-34 79.5zM471 1014q0 51 34 80.5t75.5 29.5t75.5 -29.5t34 -80.5t-34 -79.5t-75.5 -28.5t-75.5 28.5t-34 79.5z" />
<glyph unicode="&#xf8;" horiz-adv-x="1216" d="M90 504q0 230 146 378t372 148q116 0 209 -43l76 129h164l-117 -198q89 -70 138.5 -177.5t49.5 -236.5q0 -230 -145.5 -376t-374.5 -146q-114 0 -202 36l-82 -139h-162l123 207q-92 69 -143.5 177t-51.5 241zM258 506q0 -175 113 -273l366 617l4 2q-66 27 -131 27 q-154 0 -253 -106t-99 -267zM496 162q52 -21 116 -21q156 0 254.5 102.5t98.5 262.5q0 159 -107 266z" />
<glyph unicode="&#xf9;" horiz-adv-x="1247" d="M139 453v559h168v-557q0 -147 81.5 -231.5t225.5 -84.5q136 1 224 96.5t88 233.5v543h168v-1012h-156h2l-8 162q-128 -175 -352 -178q-197 0 -319 125.5t-122 343.5zM377 1430v6h205l153 -262v-11h-153z" />
<glyph unicode="&#xfa;" horiz-adv-x="1245" d="M139 453q0 -217 121.5 -343t317.5 -126q225 3 350 178l8 -162h156v1012l2 4h-168v-543q0 -140 -88 -235.5t-224 -96.5q-144 -1 -225.5 83t-81.5 231v557h-168v-559zM524 1163v11l152 262h207v-6l-205 -267h-154z" />
<glyph unicode="&#xfb;" horiz-adv-x="1247" d="M139 453v559h168v-557q0 -147 81.5 -231.5t225.5 -84.5q136 1 224 96.5t88 233.5v543h168v-1012h-156h2l-8 162q-128 -175 -352 -178q-197 0 -319 125.5t-122 343.5zM285 1155v12l290 271h107l291 -271v-12h-172l-172 158l-172 -158h-172z" />
<glyph unicode="&#xfc;" horiz-adv-x="1245" d="M139 451q0 -217 121.5 -343t317.5 -126q225 3 350 178l8 -164h156v1014l2 2h-168v-543q0 -140 -88 -235.5t-224 -96.5q-144 -1 -225.5 83.5t-81.5 232.5v557h-168v-559zM285 1337q0 41 22.5 69.5t54.5 35t64.5 0t55 -34t22.5 -68.5t-22.5 -69t-55 -34.5t-64.5 0t-54.5 34 t-22.5 67.5zM754 1337q0 51 34 80.5t75.5 29.5t75.5 -29.5t34 -80.5t-34 -79.5t-75.5 -28.5t-75.5 28.5t-34 79.5z" />
<glyph unicode="&#xfd;" horiz-adv-x="1128" d="M61 1012l406 -998l-211 -491h182l639 1489h-184l-223 -529l-111 -286l-108 288l-199 527h-191zM459 1174v10l147 252h203v-6l-201 -256h-149z" />
<glyph unicode="&#xfe;" horiz-adv-x="1304" d="M154 -424v1854h165v-615q55 98 161.5 155.5t228.5 57.5q222 -5 362.5 -142.5t140.5 -381.5q0 -126 -39 -227t-108.5 -166t-162.5 -99.5t-202 -34.5q-114 0 -216.5 54t-161.5 159v-612h-166zM334 502q0 -155 102 -259t252 -104q155 0 255.5 96t100.5 269q0 172 -100.5 266 t-255.5 94q-151 0 -252.5 -103.5t-101.5 -258.5z" />
<glyph unicode="&#xff;" horiz-adv-x="1128" d="M61 1012l406 -998l-211 -491h182l639 1489h-184l-223 -529l-111 -286l-108 288l-199 527h-191zM248 1337q0 50 33.5 78.5t73 28.5t73 -28.5t33.5 -78.5q0 -40 -22 -67t-53.5 -33t-62.5 0t-53 33t-22 67zM709 1337q0 50 33.5 78.5t73 28.5t73 -28.5t33.5 -78.5 q0 -40 -22 -67t-53 -33t-62.5 0t-53.5 33t-22 67z" />
<glyph unicode="&#x152;" horiz-adv-x="2021" d="M102 719q0 122 28.5 231t88 201t144.5 159t204.5 104.5t261.5 37.5q75 0 187 -18h878v-174h-716v-455h680v-170h-680v-459h733v-176h-897v-2q-100 -21 -185 -21q-177 0 -318 59.5t-229 162.5t-134 235.5t-46 284.5zM283 717q1 -113 36.5 -216t101.5 -186t173 -132.5 t240 -49.5q97 0 180 25v1116v2q-82 27 -185 27q-134 0 -239.5 -47t-171.5 -128.5t-100.5 -186t-34.5 -224.5z" />
<glyph unicode="&#x153;" horiz-adv-x="2039" d="M90 506q0 230 146 379t372 149q145 0 258 -68.5t170 -191.5q52 117 165.5 188.5t256.5 71.5q118 0 214.5 -36.5t166 -107.5t101.5 -186t18 -262q-678 0 -844 -2q13 -139 111 -221t245 -82q90 0 179.5 34t138.5 93l113 -102h-3q-74 -88 -190.5 -134t-241.5 -46 q-149 0 -263.5 68.5t-170.5 189.5q-62 -124 -170.5 -190t-253.5 -66q-228 0 -373 146t-145 376zM258 502h2q0 -160 97.5 -262.5t252.5 -102.5q156 0 253.5 102t97.5 263q0 160 -99.5 266t-251.5 106q-154 0 -253 -105.5t-99 -266.5zM1112 582h688v-2q-6 146 -96 224.5 t-242 78.5q-136 0 -232.5 -79.5t-117.5 -221.5z" />
<glyph unicode="&#x178;" horiz-adv-x="1392" d="M47 1427l555 -845v-582h184v582l566 845v7h-217l-441 -680l-430 680h-217v-7zM373 1686q0 49 32.5 76.5t71 27.5t71 -27.5t32.5 -76.5q0 -48 -32.5 -75t-71 -27t-71 27t-32.5 75zM819 1686q0 49 32.5 76.5t71 27.5t71 -27.5t32.5 -76.5q0 -48 -32.5 -75t-71 -27t-71 27 t-32.5 75z" />
<glyph unicode="&#x2c6;" horiz-adv-x="866" d="M61 1159v15l295 274h109l295 -274v-15h-174l-176 162l-174 -162h-175z" />
<glyph unicode="&#x2dc;" horiz-adv-x="733" d="M57 1356q23 93 92 134t154 11q13 -3 59.5 -27.5t57.5 -27.5q31 -15 63.5 -2t46.5 57l113 -47q-24 -101 -94 -138.5t-146 -6.5q-13 3 -58.5 27t-55.5 26q-33 15 -67 0.5t-52 -62.5l-109 50z" />
<glyph unicode="&#x2000;" horiz-adv-x="941" />
<glyph unicode="&#x2001;" horiz-adv-x="1882" />
<glyph unicode="&#x2002;" horiz-adv-x="941" />
<glyph unicode="&#x2003;" horiz-adv-x="1882" />
<glyph unicode="&#x2004;" horiz-adv-x="627" />
<glyph unicode="&#x2005;" horiz-adv-x="470" />
<glyph unicode="&#x2006;" horiz-adv-x="313" />
<glyph unicode="&#x2007;" horiz-adv-x="313" />
<glyph unicode="&#x2008;" horiz-adv-x="235" />
<glyph unicode="&#x2009;" horiz-adv-x="376" />
<glyph unicode="&#x200a;" horiz-adv-x="104" />
<glyph unicode="&#x2010;" horiz-adv-x="1015" d="M141 508v160h733v-160h-733z" />
<glyph unicode="&#x2011;" horiz-adv-x="1015" d="M141 508v160h733v-160h-733z" />
<glyph unicode="&#x2012;" horiz-adv-x="1015" d="M141 508v160h733v-160h-733z" />
<glyph unicode="&#x2013;" horiz-adv-x="1232" d="M147 504v158h938v-158h-938z" />
<glyph unicode="&#x2014;" horiz-adv-x="1441" d="M147 504v158h1147v-158h-1147z" />
<glyph unicode="&#x2018;" horiz-adv-x="481" d="M111 1044l137 392h137l-94 -392h-180z" />
<glyph unicode="&#x2019;" horiz-adv-x="471" d="M115 1036l96 400h180l-137 -400h-139z" />
<glyph unicode="&#x201a;" horiz-adv-x="495" d="M78 -236l94 398h180l-137 -398h-137z" />
<glyph unicode="&#x201c;" horiz-adv-x="778" d="M106 1034l140 396h137l-96 -396h-181zM403 1034l140 396h139l-98 -396h-181z" />
<glyph unicode="&#x201d;" horiz-adv-x="772" d="M119 1047l96 389h180l-137 -389h-139zM418 1047l94 389h180l-137 -389h-137z" />
<glyph unicode="&#x201e;" horiz-adv-x="792" d="M76 -236l96 398h180l-137 -398h-139zM375 -236l94 398h180l-137 -398h-137z" />
<glyph unicode="&#x2022;" horiz-adv-x="808" d="M176 575q0 100 65.5 163t164.5 63q97 0 161 -63.5t64 -164.5q0 -100 -64 -161.5t-161 -61.5v2q-100 0 -165 61.5t-65 161.5z" />
<glyph unicode="&#x2026;" horiz-adv-x="1296" d="M133 92q0 41 23 69.5t55.5 35t64.5 -0.5t55 -35.5t23 -70.5q0 -41 -23 -69.5t-55.5 -35t-64.5 0.5t-55 35.5t-23 70.5zM539 92q0 41 23 69.5t55.5 35t64.5 -0.5t55 -35.5t23 -70.5q0 -41 -23 -69.5t-55 -35t-64.5 0.5t-55.5 35.5t-23 70.5zM942 92q0 41 23 69.5t55 35 t64.5 -0.5t55.5 -35.5t23 -70.5q0 -41 -23 -69.5t-55.5 -35t-64.5 0.5t-55 35.5t-23 70.5z" />
<glyph unicode="&#x202f;" horiz-adv-x="376" />
<glyph unicode="&#x2039;" horiz-adv-x="647" d="M90 610l283 451h180l-281 -451l281 -452h-180z" />
<glyph unicode="&#x203a;" horiz-adv-x="651" d="M98 156l281 452l-281 451h181l282 -451l-282 -452h-181z" />
<glyph unicode="&#x205f;" horiz-adv-x="470" />
<glyph unicode="&#x20ac;" horiz-adv-x="1255" d="M86 768v143h137q23 118 78 215t140.5 171t209.5 115.5t275 41.5q97 0 213 -33l-52 -157q-76 20 -157 20q-211 0 -340 -98t-176 -275h518l-35 -143h-518q-2 -18 -2 -59q0 -40 2 -54h487l-30 -141h-424q42 -175 172 -271t346 -96q102 0 200 37l50 -168v-6 q-121 -41 -252 -41q-304 0 -477.5 142.5t-227.5 396.5h-135v141h115q-2 8 -2 56q0 43 2 63h-117z" />
<glyph unicode="&#x2122;" horiz-adv-x="1646" d="M131 1315v119h571v-119h-217v-465h-139v465h-215zM793 850v586h143l201 -256l204 256h140v-586h-144l6 385l-194 -246h-29l-190 252l6 -391h-143z" />
<glyph unicode="&#x25fc;" horiz-adv-x="1013" d="M0 0v1014h1014v-1014h-1014z" />
<glyph unicode="&#xfb01;" horiz-adv-x="1208" d="M66 856h198v-854h168v854h307v145h-307v80q0 111 46.5 165t131.5 54q66 0 123 -32l55 133l-2 2q-86 47 -182 47q-160 0 -250 -97.5t-90 -271.5v-80h-198v-145zM864 1323q0 41 23 69.5t55 35t64.5 -0.5t55.5 -35.5t23 -70.5q0 -41 -23 -69.5t-55.5 -35t-64.5 0.5t-55 35.5 t-23 70.5zM891 2h168v1016h-168v-1016z" />
<glyph unicode="&#xfb02;" horiz-adv-x="1204" d="M66 854v147h198v80q0 173 90 270t250 97q92 0 174 -43l-45 -133h-2q-55 31 -121 31q-84 0 -131 -55.5t-47 -166.5v-80h295v-147h-295v-852h-168v852h-198zM870 0v1434h168v-1434h-168z" />
</font>
</defs>
</svg>
