<?xml version="1.0" standalone="no"?>
<!DOCTYPE svg PUBLIC "-//W3C//DTD SVG 1.1//EN" "http://www.w3.org/Graphics/SVG/1.1/DTD/svg11.dtd" >
<svg xmlns="http://www.w3.org/2000/svg">
<metadata></metadata>
<defs>
<font id="nexa_blackregular" horiz-adv-x="1632" >
<font-face units-per-em="2048" ascent="1434" descent="-614" />
<missing-glyph horiz-adv-x="464" />
<glyph horiz-adv-x="2048" />
<glyph horiz-adv-x="2048" />
<glyph unicode="&#xd;" horiz-adv-x="2048" />
<glyph unicode=" "  horiz-adv-x="464" />
<glyph unicode="&#x09;" horiz-adv-x="464" />
<glyph unicode="&#xa0;" horiz-adv-x="464" />
<glyph unicode="!" horiz-adv-x="657" d="M115 147.5q-11 42.5 0 85.5t35 78.5t70.5 57.5t105.5 22q60 0 107 -22t71.5 -57.5t36 -78.5t0 -85.5t-35.5 -78t-71.5 -57.5t-107.5 -22q-59 0 -105.5 22t-70.5 57.5t-35 78zM131 1434h397l-8 -963h-383z" />
<glyph unicode="&#x22;" horiz-adv-x="964" d="M119 877v559h307v-559h-307zM539 877v559h307v-559h-307z" />
<glyph unicode="#" horiz-adv-x="1513" d="M74 264v291h213l71 299h-151v287h223l70 293h344l-74 -293h191l71 293h348l-73 -293h131v-289h-203l-78 -297h148v-291h-213l-64 -264h-346l63 264h-188l-65 -264h-342l63 264h-139zM623 543h190l82 327h-190z" />
<glyph unicode="$" horiz-adv-x="1402" d="M66 211l223 256q167 -162 420 -162q101 0 163 34t62 93q0 110 -240 131q-104 10 -182 25.5t-157 48.5t-130 81.5t-82.5 127t-31.5 182.5q0 172 116.5 277.5t302.5 140.5v186h344v-182q209 -30 373 -158l-200 -256q-131 99 -336 99q-81 0 -138 -27t-57 -80q0 -29 12 -49.5 t30 -33.5t52 -22t64 -13t80 -9q91 -10 170 -29.5t157 -56.5t132.5 -88t88 -128t33.5 -173q0 -97 -36 -177t-100.5 -134.5t-146.5 -89.5t-180 -52h2v-198h-344v192q-134 16 -244.5 72t-219.5 172z" />
<glyph unicode="%" horiz-adv-x="1843" d="M68 1110q0 66 22 126.5t65 110t114.5 78.5t162.5 29q92 0 164 -29t115.5 -78.5t65.5 -110t22 -126.5q0 -67 -22 -127t-65.5 -109t-115.5 -77.5t-164 -28.5q-91 0 -162.5 28.5t-114.5 77.5t-65 109t-22 127zM260 0l944 1432h369l-938 -1432h-375zM336 1110q0 -37 25 -63.5 t71 -26.5q48 0 72 26.5t24 63.5t-24 63.5t-72 26.5q-46 0 -71 -26.5t-25 -63.5zM1044 326q0 53 13.5 102t42.5 93.5t71 77t103.5 52t134.5 19.5q92 0 164 -29t115.5 -78.5t65.5 -110t22 -126.5q0 -67 -22 -127t-65.5 -109t-115.5 -77.5t-164 -28.5q-91 0 -162.5 28.5 t-115 77.5t-65.5 109t-22 127zM1313 326q0 -37 24.5 -63.5t71.5 -26.5q48 0 72 26.5t24 63.5t-24 63.5t-72 26.5q-47 0 -71.5 -26.5t-24.5 -63.5z" />
<glyph unicode="&#x26;" horiz-adv-x="1521" d="M84 418q0 84 57 172t150 141q-80 40 -119 124.5t-39 160.5q0 72 20 133.5t53.5 106t81 80t100 58.5t112.5 38t116 21.5t113 6.5q90 0 169 -14t151 -46.5t123 -82t81.5 -125.5t30.5 -172h-369q-1 55 -39.5 91.5t-93 44t-108.5 -1.5t-91.5 -44.5t-37.5 -85.5q0 -74 53 -114 t119 -40h706v-286h-145v-111q0 -61 41.5 -97t112.5 -24v-354q-276 -53 -359 154q-84 -88 -189.5 -131.5t-250.5 -43.5q-87 0 -163 12.5t-148.5 43.5t-123.5 80t-82.5 127t-31.5 178zM483 440q0 -69 57.5 -103t141.5 -34q95 0 163 48t68 130v97h-219q-39 0 -72.5 -6 t-66.5 -20t-52.5 -42.5t-19.5 -69.5z" />
<glyph unicode="'" horiz-adv-x="544" d="M119 877v559h307v-559h-307z" />
<glyph unicode="(" horiz-adv-x="765" d="M57 651q0 295 142.5 553.5t382.5 427.5l172 -200q-164 -134 -260.5 -341t-96.5 -440q0 -219 91 -430.5t245 -337.5l-162 -217q-254 169 -384 422.5t-130 562.5z" />
<glyph unicode=")" horiz-adv-x="765" d="M12 1432l172 200q240 -169 382.5 -427.5t142.5 -553.5q0 -309 -130 -562.5t-384 -422.5l-162 217q154 126 245 337.5t91 430.5q0 233 -96.5 440t-260.5 341z" />
<glyph unicode="*" horiz-adv-x="886" d="M76 1098l76 241l174 -69l-15 176h273l-29 -178l186 78l70 -248l-178 -33l123 -117l-217 -162l-95 160l-92 -162l-223 142l127 135z" />
<glyph unicode="+" horiz-adv-x="1060" d="M82 506v313h278v271h338v-271h281v-313h-281v-273h-338v273h-278z" />
<glyph unicode="," horiz-adv-x="563" d="M90 127q0 78 58.5 122t140.5 44q76 0 129 -44t53 -124q0 -102 -119 -346h-196l43 211q-109 20 -109 137z" />
<glyph unicode="-" horiz-adv-x="1044" d="M111 444v299h823v-299h-823z" />
<glyph unicode="." horiz-adv-x="579" d="M87 169q0 48 21 89t68.5 68.5t112.5 27.5t113 -27.5t69.5 -68.5t21.5 -89t-21.5 -89t-69.5 -68.5t-113 -27.5q-64 0 -111.5 27.5t-69 68.5t-21.5 89z" />
<glyph unicode="/" horiz-adv-x="1089" d="M49 -158l639 1698h354l-643 -1698h-350z" />
<glyph unicode="0" horiz-adv-x="1490" d="M96 608v197q0 136 34.5 246t94 184t143.5 123.5t179 71.5t203 22q137 0 252 -38.5t204 -115t139 -203t50 -290.5v-195q0 -134 -34 -243.5t-92.5 -184t-140.5 -125t-175.5 -73.5t-198.5 -23t-199 22t-179 71.5t-146.5 123t-97.5 183.5t-36 247zM494 608q0 -157 69 -236 t182 -79q114 0 184 79t70 236v195q0 152 -68 229.5t-181 77.5t-184.5 -76.5t-71.5 -230.5v-195z" />
<glyph unicode="1" horiz-adv-x="970" d="M98 0v305h230v682l-217 -63v317l598 217v-1153h213v-305h-824z" />
<glyph unicode="2" horiz-adv-x="1413" d="M94 0v334q0 512 621 512q33 0 65.5 7t64 23t51 46.5t19.5 72.5q0 70 -56 104t-138 34q-193 0 -207 -152h-395q1 98 33 177.5t87.5 133.5t132.5 91t164 54t185 17t185.5 -17.5t162.5 -54.5t129.5 -89.5t85.5 -127.5t31 -164q0 -475 -600 -475q-35 0 -62.5 -3t-61.5 -13.5 t-56.5 -29.5t-38 -53.5t-15.5 -82.5h824v-344h-1211z" />
<glyph unicode="3" horiz-adv-x="1425" d="M80 473h397q1 -46 21.5 -80.5t55.5 -54t76 -28.5t89 -9q81 0 140 38t59 103q0 15 -2.5 29.5t-14 37.5t-31 39t-59 28t-92.5 12h-260v286h241q34 0 65 5t63 17t52 37t21 60q0 55 -55 93t-146 38q-88 0 -149 -35t-62 -106h-389q2 102 38 184t94 135.5t136 89.5t160.5 51 t171.5 15q86 0 169 -14.5t163.5 -48.5t140.5 -84.5t97 -128t37 -172.5q0 -84 -52 -162t-139 -115q223 -82 223 -315q0 -81 -28 -149t-76.5 -115.5t-111 -83.5t-135.5 -56.5t-145 -30.5t-145 -10q-90 0 -175.5 16t-167 54t-142 94t-97.5 142.5t-36 193.5z" />
<glyph unicode="4" horiz-adv-x="1415" d="M39 584l764 850h375v-867h153v-319h-153v-248h-381v248h-731zM457 567h340v375z" />
<glyph unicode="5" horiz-adv-x="1361" d="M96 475h396q0 -83 61 -125.5t139 -42.5q27 0 57 6.5t64 21.5t56 47t22 77q1 40 -13.5 69.5t-35.5 45.5t-50.5 25.5t-53 12t-50.5 2.5h-567v818h1089v-330h-714v-170h192q101 0 184 -11.5t162.5 -43.5t133.5 -84t86.5 -136.5t31.5 -197.5q0 -102 -35.5 -184.5t-94 -136 t-136.5 -89.5t-158.5 -51.5t-165.5 -15.5q-133 0 -238.5 26.5t-188 83.5t-127.5 154t-46 229z" />
<glyph unicode="6" horiz-adv-x="1445" d="M111 473v498q0 99 34.5 181t93 138t138 94.5t168.5 56t186 17.5q101 0 187.5 -13.5t164.5 -46t133 -82t87 -125.5t32 -173h-387q-6 62 -65 93.5t-150 31.5t-158 -46.5t-67 -125.5v-135q60 45 152 71.5t180 26.5q153 0 271 -52t187.5 -158.5t69.5 -254.5q0 -102 -35 -186 t-94 -140.5t-140 -95t-170 -55.5t-186 -17q-95 0 -184.5 17.5t-171.5 56.5t-143 95.5t-97 141t-36 187.5zM512 471q0 -67 61.5 -115.5t169.5 -48.5q95 0 158.5 44t63.5 118q0 82 -59.5 128t-160.5 46q-114 0 -173.5 -48t-59.5 -124z" />
<glyph unicode="7" horiz-adv-x="1214" d="M59 1102v334h1131l10 -183l-616 -1253h-439l543 1102h-629z" />
<glyph unicode="8" horiz-adv-x="1476" d="M86 446q2 71 50 159.5t140 137.5q-144 103 -147 285q0 106 45.5 190t125.5 137.5t187 81t234 27.5q129 0 241.5 -27.5t200 -80t138.5 -136.5t51 -188q2 -84 -38 -156.5t-114 -117.5q54 -29 93 -71t58.5 -86.5t28 -82t9.5 -72.5q2 -103 -30 -184t-89.5 -135.5t-141 -90 t-180.5 -51.5t-211 -16q-115 0 -211.5 15.5t-180 51t-141 90t-89 136t-29.5 184.5zM506 446q0 -71 66.5 -111t164.5 -40q96 0 163.5 38.5t64.5 110.5q0 69 -60.5 111.5t-165.5 42.5q-106 0 -169.5 -40.5t-63.5 -111.5zM536.5 979q10.5 -31 32 -57t64 -42t96.5 -16t97 16 t65 42t32.5 57t0.5 62.5t-32 57.5t-64.5 42t-96.5 16t-97 -16t-65 -42t-32.5 -57.5t0 -62.5z" />
<glyph unicode="9" horiz-adv-x="1449" d="M82 965q0 102 35 186t94 140t140 94.5t170 55.5t186 17q95 0 184.5 -17.5t171.5 -56t143 -95t97 -141t36 -187.5v-484q0 -105 -35.5 -190.5t-96 -142.5t-142.5 -95.5t-171.5 -56t-186.5 -17.5q-128 0 -233 23t-191 72.5t-134.5 137.5t-48.5 208h387q6 -62 65 -93.5 t150 -31.5q94 0 167 49t73 135v123q-70 -57 -151.5 -77.5t-180.5 -20.5q-153 0 -271 52t-187.5 158.5t-69.5 254.5zM485 965q0 -82 59.5 -128t160.5 -46q114 0 173.5 48t59.5 124q0 67 -61.5 115t-169.5 48q-95 0 -158.5 -43.5t-63.5 -117.5z" />
<glyph unicode=":" horiz-adv-x="643" d="M117 170q0 86 59.5 134t142.5 48t145 -48t62 -134t-62 -134t-145 -48t-142.5 48t-59.5 134zM117 725q0 86 59.5 133t142.5 47t145 -47.5t62 -132.5q0 -87 -61.5 -134.5t-145.5 -47.5q-83 0 -142.5 47.5t-59.5 134.5z" />
<glyph unicode=";" horiz-adv-x="606" d="M111 725q0 80 55 124t133 44t135.5 -44t57.5 -124q0 -81 -57 -125.5t-136 -44.5q-78 0 -133 44t-55 126zM113 127q0 78 58 122t140 44q76 0 129.5 -44t53.5 -124q0 -102 -119 -346h-197l43 211q-108 20 -108 137z" />
<glyph unicode="&#x3c;" horiz-adv-x="903" d="M63 623v24l502 506l234 -240l-297 -280l295 -279l-236 -239z" />
<glyph unicode="=" horiz-adv-x="1140" d="M123 260v295h895v-295h-895zM123 698v297h895v-297h-895z" />
<glyph unicode="&#x3e;" horiz-adv-x="907" d="M104 932l238 229l502 -512v-28l-502 -512l-233 227l305 297z" />
<glyph unicode="?" horiz-adv-x="1230" d="M68 971q-11 114 28.5 207t115.5 151.5t175 89.5t211 31q90 0 171.5 -16t154.5 -51t125.5 -86t83.5 -126t30 -167q0 -60 -21 -108.5t-54.5 -81.5t-73.5 -61.5t-80.5 -55.5t-74 -57t-55 -73t-22.5 -96h-397q3 55 13 103t22.5 82.5t35 66t39.5 50.5t47 41.5t46.5 32.5 t48.5 29q8 5 12 7q51 30 74.5 56.5t24.5 59.5q2 51 -37.5 87t-112.5 36q-170 0 -170 -151h-360zM377 147.5q-11 42.5 0 85.5t35 78.5t70.5 57.5t105.5 22q60 0 107 -22t71.5 -57.5t36 -78.5t0 -85.5t-35.5 -78t-71.5 -57.5t-107.5 -22q-59 0 -105.5 22t-70.5 57.5t-35 78z " />
<glyph unicode="@" horiz-adv-x="1888" d="M84 498q0 159 49 296t133.5 235t196 168t237 104t256.5 34q184 0 337.5 -48.5t272.5 -146t186 -257.5t67 -369q0 -244 -108 -389t-290 -145q-65 0 -122.5 36.5t-84.5 124.5q-49 -80 -123.5 -113.5t-181.5 -33.5q-219 0 -352 133.5t-133 370.5q0 119 41.5 216.5 t110.5 157.5t155 92.5t178 32.5q95 0 171.5 -36t111.5 -97l12 101l219 -35v-658q0 -33 15.5 -46t29.5 -13q57 0 90 76t33 219q0 164 -43 282.5t-127 189.5t-198.5 104.5t-266.5 33.5q-125 0 -239.5 -43.5t-202 -122t-140 -196.5t-52.5 -258q0 -157 51 -276t140 -188.5 t198 -103.5t237 -34q152 0 260 65l92 -186q-165 -97 -358 -97q-130 0 -251.5 29t-232.5 93.5t-193.5 158.5t-131.5 232.5t-49 306.5zM709 500q0 -100 60 -170t175 -70q112 0 174 71t62 179q0 101 -61.5 167t-176.5 66q-114 0 -173.5 -71t-59.5 -172z" />
<glyph unicode="A" d="M-31 0l643 1434h410l641 -1434h-434l-94 236h-641l-95 -236h-430zM631 575h366l-182 457z" />
<glyph unicode="B" horiz-adv-x="1513" d="M145 0v1434h734q110 0 203 -25t164.5 -73t112 -126t40.5 -178q0 -206 -158 -278q96 -52 147.5 -142.5t51.5 -191.5q0 -93 -33 -166.5t-86.5 -120t-127.5 -77t-149.5 -43t-158.5 -13.5h-740zM545 315h342q74 0 112.5 37t38.5 99q0 61 -39 99t-112 38h-342v-273zM545 887 h323q62 0 95.5 29t33.5 77q0 49 -33.5 81t-91.5 32h-327v-219z" />
<glyph unicode="C" horiz-adv-x="1447" d="M68 707v8q0 109 28 213q29 108 92.5 206t153.5 171.5t221.5 117t288.5 43.5q320 0 555 -229l-250 -246q-130 125 -305 125q-80 0 -146 -25t-109 -66t-73 -95t-43 -110q-12 -52 -12 -107v-8q1 -74 22 -141.5t63.5 -126.5t119.5 -94.5t178 -35.5q80 0 173.5 36.5 t164.5 109.5l237 -267q-226 -223 -575 -223q-164 0 -297 40.5t-222 109.5t-149.5 164.5t-87.5 202.5t-28 227z" />
<glyph unicode="D" horiz-adv-x="1579" d="M145 0v1434h615q149 0 272 -35.5t210.5 -99.5t148 -152.5t89.5 -194t29 -225.5t-28 -227.5t-88 -199t-147 -158t-211.5 -104.5t-274.5 -38h-615zM547 342h213q93 0 162.5 32.5t109 89t58 123t18.5 144.5q0 76 -20 140.5t-60.5 115.5t-109 80t-158.5 29h-213v-754z" />
<glyph unicode="E" horiz-adv-x="1376" d="M145 0v1434h1119v-340h-719v-205h678v-330h-678v-217h747v-342h-1147z" />
<glyph unicode="F" horiz-adv-x="1312" d="M145 0v1434h1100v-340h-698v-269h655v-331h-655v-494h-402z" />
<glyph unicode="G" horiz-adv-x="1548" d="M66 715q0 115 29 223t92 206t153.5 171.5t221.5 116.5t288 43q165 0 298 -49.5t265 -182.5l-235 -233q-133 125 -328 125q-179 0 -282 -107t-103 -313q0 -58 12 -113.5t40.5 -110.5t71.5 -96t110.5 -66.5t150.5 -25.5q173 0 276 74v184h-362v318h700v-637 q-66 -133 -234.5 -207t-381.5 -74q-165 0 -298.5 42.5t-222 114.5t-148.5 170t-86.5 204.5t-26.5 222.5z" />
<glyph unicode="H" horiz-adv-x="1613" d="M145 -2v1434h406v-545h516v545h401v-1434h-401v543h-516v-543h-406z" />
<glyph unicode="I" horiz-adv-x="694" d="M145 0v1434h404v-1434h-404z" />
<glyph unicode="J" horiz-adv-x="1490" d="M31 618h395q3 -152 76 -224t188 -72q129 0 200 77t71 222v473h-381v340h786v-816q0 -142 -45 -260.5t-129.5 -205t-214 -135t-291.5 -48.5q-318 0 -486.5 159.5t-168.5 489.5z" />
<glyph unicode="K" horiz-adv-x="1439" d="M145 0v1434h406v-471q127 157 377 471h485v-25l-582 -678q335 -368 631 -706v-25h-501l-410 477v-477h-406z" />
<glyph unicode="L" horiz-adv-x="1269" d="M145 0v1434h406v-1090h686v-344h-1092z" />
<glyph unicode="M" horiz-adv-x="1890" d="M145 0v1434h424l377 -486l377 486h422v-1434h-402v854l-366 -434h-72l-358 432v-852h-402z" />
<glyph unicode="N" horiz-adv-x="1636" d="M145 0v1434h344l607 -785q-6 108 -13 293v492h408v-1434h-344l-598 772l6 -313v-459h-410z" />
<glyph unicode="O" horiz-adv-x="1724" d="M66 717q0 231 101.5 402.5t280.5 260t414 88.5q236 0 415 -87.5t280.5 -258.5t101.5 -405q0 -235 -101.5 -406.5t-280.5 -258.5t-415 -87q-235 0 -414 87t-280.5 258.5t-101.5 406.5zM471 717q0 -180 109.5 -293t281.5 -113q177 0 284 113t107 293q0 185 -106.5 295 t-284.5 110q-173 0 -282 -113t-109 -292z" />
<glyph unicode="P" horiz-adv-x="1452" d="M145 0v1434h697q140 0 251.5 -42t181 -114.5t106 -166t36.5 -200.5q0 -111 -36.5 -205t-106.5 -165t-181 -112t-251 -42h-291v-387h-406zM551 729h291q81 0 125.5 50.5t44.5 125.5t-45.5 127.5t-124.5 52.5h-291v-356z" />
<glyph unicode="Q" horiz-adv-x="1718" d="M66 719q0 231 100.5 402t278.5 259t413 88q176 0 322.5 -51t250.5 -146t162 -236.5t58 -315.5q0 -237 -121 -426l162 -166l-271 -266l-180 184q-166 -78 -383 -78q-234 0 -412.5 89t-279 260t-100.5 403zM467 719q0 -185 108.5 -295.5t282.5 -110.5q179 0 283 108 t104 298q0 180 -105 292.5t-282 112.5q-172 0 -281.5 -113.5t-109.5 -291.5z" />
<glyph unicode="R" horiz-adv-x="1509" d="M145 0v1434h701q133 0 241 -40.5t176 -110t104 -157.5t36 -186q0 -145 -66.5 -251t-236.5 -181l373 -483v-25h-447l-334 465h-141v-465h-406zM551 766h299q75 0 114.5 48t39.5 118q0 73 -41.5 125.5t-116.5 52.5h-295v-344z" />
<glyph unicode="S" horiz-adv-x="1363" d="M47 211l223 256q167 -162 420 -162q101 0 163 34t62 93q0 110 -239 131q-104 10 -182 25.5t-157.5 48.5t-130 81.5t-82.5 127t-32 182.5q0 109 50.5 194.5t136.5 136.5t191 77t222 26q164 0 293.5 -40.5t243.5 -129.5l-201 -256q-131 99 -336 99q-81 0 -137.5 -27 t-56.5 -80q0 -29 12 -49.5t30 -33.5t51.5 -22t63.5 -13t80 -9q91 -10 170.5 -29.5t157 -56.5t132 -88t88.5 -128t34 -173q0 -118 -52.5 -209.5t-142 -146t-199.5 -82.5t-235 -29h-15q-199 1 -339 51q-146 52 -287 201z" />
<glyph unicode="T" horiz-adv-x="1302" d="M31 1100v334h1241v-334h-420v-1100h-403v1100h-418z" />
<glyph unicode="U" horiz-adv-x="1601" d="M125 635v797h403v-797q0 -163 72.5 -241.5t200.5 -78.5q127 0 199.5 79t72.5 237v801h404v-801q1 -315 -178.5 -488.5t-497.5 -173.5q-320 0 -498 171t-178 495z" />
<glyph unicode="V" horiz-adv-x="1533" d="M-27 1434h449l164 -430l180 -531l182 531l164 430h449l-596 -1440h-396z" />
<glyph unicode="W" horiz-adv-x="2183" d="M-18 1434h442l184 -504q32 -101 76 -332l264 836h281l272 -836q29 158 80 342l172 494h442l-522 -1432h-330l-253 686l-246 -686h-328z" />
<glyph unicode="X" horiz-adv-x="1462" d="M-2 0v16l481 705l-450 690v23h436l133 -220l133 -253l135 258l131 215h437v-23l-451 -690l481 -705v-16h-440l-133 199l-160 266l-162 -270l-131 -195h-440z" />
<glyph unicode="Y" horiz-adv-x="1478" d="M-12 1417v17h456l297 -492l310 492h456v-19l-569 -844v-571h-406v571z" />
<glyph unicode="Z" horiz-adv-x="1316" d="M51 0v127l641 979h-606v328h1149v-115l-627 -969h643v-350h-1200z" />
<glyph unicode="[" horiz-adv-x="761" d="M135 -322v1762h555v-297h-217v-1168h217v-297h-555z" />
<glyph unicode="\" horiz-adv-x="1091" d="M47 1540h352l643 -1698h-354z" />
<glyph unicode="]" horiz-adv-x="765" d="M72 -25h217v1168h-217v297h559v-1762h-559v297z" />
<glyph unicode="^" horiz-adv-x="1306" d="M74 678v27l461 710h217l481 -708v-29h-363l-229 334l-215 -334h-352z" />
<glyph unicode="_" horiz-adv-x="1046" d="M18 6h1010v-299h-1010v299z" />
<glyph unicode="`" horiz-adv-x="589" d="M-6 1419v17h395l158 -330v-12h-330z" />
<glyph unicode="a" horiz-adv-x="1327" d="M55 506q0 227 137 377.5t355 150.5q212 0 297 -131l18 109h355v-1012h-349l-16 109q-62 -69 -152 -101q-78 -27 -157 -27q-13 0 -25 1q-219 13 -341 155.5t-122 368.5zM430 506q0 -103 57.5 -162t145.5 -59q93 0 151 64.5t58 156.5q0 103 -55 163t-154 60 q-88 0 -145.5 -60t-57.5 -163z" />
<glyph unicode="b" horiz-adv-x="1316" d="M111 0v1434h376v-508q87 108 281 108q220 0 356 -147.5t136 -380.5q0 -239 -120 -374.5t-343 -149.5q-13 -1 -25 -1q-80 -1 -158 27q-90 32 -151 101l-17 -109h-335zM479 496q0 -84 56 -147.5t147 -63.5q88 0 145.5 59t57.5 162t-57.5 163t-145.5 60q-95 0 -149 -67.5 t-54 -165.5z" />
<glyph unicode="c" horiz-adv-x="1062" d="M55 504q0 107 32 196t86 150t127 103t154.5 61.5t168.5 19.5q112 0 215.5 -39.5t181.5 -117.5l-201 -218q-71 74 -174 74q-104 0 -162.5 -66t-58.5 -165q0 -88 58 -148.5t161 -60.5q110 0 188 84l216 -225q-191 -172 -418 -172q-91 0 -173 17.5t-156 58t-128 100 t-85.5 149t-31.5 199.5z" />
<glyph unicode="d" horiz-adv-x="1316" d="M57 506q0 233 136 380.5t356 147.5q193 0 280 -108v508h377v-1434h-336l-16 109q-62 -69 -152 -101q-78 -27 -157 -27q-13 0 -25 1q-223 14 -343 149.5t-120 374.5zM432 506q0 -103 57.5 -162t145.5 -59q91 0 147 63.5t56 147.5q0 98 -54 165.5t-149 67.5 q-88 0 -145.5 -60t-57.5 -163z" />
<glyph unicode="e" horiz-adv-x="1208" d="M55 504q0 107 32.5 196.5t87 150.5t127 103.5t152.5 62t164 19.5q135 0 245.5 -43.5t183.5 -125.5t101 -200q13 -55 12 -116q0 -71 -17 -152h-707q19 -62 87 -95.5t139 -33.5q150 0 260 82l184 -207q-89 -83 -208.5 -125.5t-252.5 -42.5q-123 0 -227.5 31t-186.5 93.5 t-129 165.5t-47 237zM438 641h367q-3 46 -39.5 77.5t-87.5 39.5q-27 4 -55 4q-23 0 -47 -3q-52 -7 -91.5 -39t-46.5 -79z" />
<glyph unicode="f" horiz-adv-x="876" d="M37 702v291h172v49q0 86 25.5 156.5t67.5 117.5t99 79.5t118 46.5t126 14q192 0 305 -110l-114 -228q-57 49 -138 49q-48 0 -80 -31.5t-32 -93.5v-49h262v-291h-262v-702h-377v702h-172z" />
<glyph unicode="g" horiz-adv-x="1259" d="M55 526q0 155 75.5 274t203 181.5t284.5 62.5q106 0 209 -38q14 18 52.5 66.5t56.5 72.5l272 -195l-131 -155q97 -108 97 -253v-20q-2 -96 -50 -185t-135 -151q65 -37 108.5 -83t61.5 -90.5t23.5 -73.5t5.5 -58q0 -95 -32 -172t-86.5 -128t-129 -85.5t-155.5 -49.5 t-171 -15q-271 0 -415 133q-130 120 -130 321q0 21 1 43h354v-7q0 -53 14 -89q14 -40 42.5 -60t60.5 -28t73 -8q79 0 133 37.5t54 107.5q0 61 -43.5 98t-139.5 37q-256 0 -409.5 138t-153.5 372zM422 526q0 -89 55.5 -143.5t140.5 -54.5q81 0 136 51t55 147q0 87 -54.5 148 t-136.5 61q-86 0 -141 -55.5t-55 -153.5z" />
<glyph unicode="h" horiz-adv-x="1255" d="M111 0v1434h381v-531q54 70 117 100.5t153 30.5q80 0 149 -27t126 -81.5t89.5 -148t32.5 -216.5v-561h-375v559q-5 150 -137 150q-62 0 -109.5 -45.5t-48.5 -128.5v-535h-378z" />
<glyph unicode="i" horiz-adv-x="600" d="M88 1272q0 90 63.5 140t149.5 50q85 0 148 -50t63 -140q0 -88 -63 -138.5t-148 -50.5q-86 0 -149.5 50t-63.5 139zM111 0h378v995h-378v-995z" />
<glyph unicode="j" horiz-adv-x="598" d="M-143 -412q121 -59 235 -64q13 -1 25 -1q99 0 177 39q87 45 140 146t53 245v1042h-376v-1042q0 -93 -50 -119q-18 -10 -41 -10q-39 0 -92 29zM88 1272q0 90 63.5 140t149.5 50q85 0 148 -50t63 -140q0 -88 -63 -138.5t-148 -50.5q-86 0 -149.5 50t-63.5 139z" />
<glyph unicode="k" horiz-adv-x="1165" d="M111 0v1434h378v-719l211 297h420v-17l-354 -458l412 -514v-23h-426l-263 352v-352h-378z" />
<glyph unicode="l" horiz-adv-x="593" d="M111 0v1436h372v-1436h-372z" />
<glyph unicode="m" horiz-adv-x="1806" d="M111 0v1012h317l27 -109q45 63 121 97q71 32 148 32h9q80 -2 147.5 -38.5t104.5 -104.5q117 145 336 145q175 0 281 -115.5t106 -355.5v-563h-377v561q0 75 -29.5 112.5t-74.5 37.5q-53 0 -92 -38.5t-39 -115.5v-557h-371v561q0 84 -27 120t-80 36q-52 0 -92 -42 t-41 -120v-555h-374z" />
<glyph unicode="n" horiz-adv-x="1273" d="M111 0v1012h333l17 -111q61 71 147 104q81 31 162 31h10q67 -1 123.5 -15.5t107.5 -49t87 -88t57 -135.5t21 -187v-561h-377v559q0 87 -41 127.5t-101 40.5q-73 0 -123.5 -50.5t-50.5 -144.5v-532h-372z" />
<glyph unicode="o" horiz-adv-x="1265" d="M55 504q0 109 32 198.5t87 150.5t129.5 102.5t157 60t172.5 18.5q92 0 175 -19.5t157 -61.5t128 -103t85.5 -149.5t31.5 -196.5q0 -107 -33 -196t-88 -150t-129.5 -103t-156.5 -61t-170 -19q-89 0 -172 19t-157 61t-129 103t-87.5 150t-32.5 196zM424 504 q0 -92 56.5 -155.5t152.5 -63.5q94 0 151.5 62.5t57.5 156.5q0 92 -56.5 156.5t-152.5 64.5t-152.5 -64.5t-56.5 -156.5z" />
<glyph unicode="p" horiz-adv-x="1316" d="M111 -422v1434h335l17 -109q61 69 151 101q79 27 158 27q12 0 25 -1q223 -14 343 -149.5t120 -374.5q0 -233 -136 -381t-356 -148q-193 0 -281 109v-508h-376zM479 516q0 -98 54 -165.5t149 -67.5q88 0 145.5 60t57.5 163t-57.5 162t-145.5 59q-91 0 -147 -63.5 t-56 -147.5z" />
<glyph unicode="q" horiz-adv-x="1316" d="M57 506q0 239 120 374.5t343 149.5q13 1 25 1q79 0 157 -27q91 -32 152 -101l16 109h336v-1434h-377v508q-88 -109 -280 -109q-220 0 -356 148t-136 381zM432 506q0 -103 57.5 -163t145.5 -60q95 0 149 67.5t54 165.5q0 84 -56 147.5t-147 63.5q-88 0 -145.5 -59 t-57.5 -162z" />
<glyph unicode="r" horiz-adv-x="966" d="M111 0v1012h338l22 -111q38 68 103.5 101.5t142.5 33.5t147 -28t119 -80l-152 -273q-44 36 -82 49t-87 13q-76 0 -125.5 -48t-49.5 -143v-526h-376z" />
<glyph unicode="s" horiz-adv-x="1046" d="M39 106l123 275q71 -46 145 -72.5t115.5 -32t97.5 -8.5q103 0 103 49q0 47 -107 56q-63 2 -121.5 13t-116.5 36t-100.5 61.5t-69 93.5t-26.5 128q0 88 39 154t106 103.5t148 55.5t174 18q121 0 230 -33t184 -90l-160 -225q-41 26 -117 44q-72 18 -131 18h-6 q-90 0 -90 -50q0 -18 17.5 -33t58.5 -16q70 -2 130 -11t123.5 -32t108.5 -59t73.5 -95.5t28.5 -136.5q0 -73 -25.5 -131.5t-69.5 -97.5t-105 -65.5t-128.5 -38t-142.5 -11.5q-135 0 -270 35.5t-219 97.5z" />
<glyph unicode="t" horiz-adv-x="884" d="M39 717v289h162v251l374 41v-292h228v-289h-230v-332q3 -98 101 -98q56 0 110 35l82 -279q-119 -68 -291 -68q-63 0 -117 12t-103 41.5t-83 75t-54 117.5q-18 65 -17 147v17v332h-162z" />
<glyph unicode="u" horiz-adv-x="1273" d="M98 451v561h377v-559q0 -87 41 -127.5t100 -40.5q74 0 124.5 47t50.5 141v539h372v-1012h-334l-16 111q-61 -71 -147 -105q-81 -32 -162 -31h-10q-67 1 -123.5 15.5t-107.5 49.5t-87 88.5t-57 135.5t-21 187z" />
<glyph unicode="v" horiz-adv-x="1206" d="M-16 1012h399l111 -283l108 -328l103 328l108 283h399l-417 -1018h-375z" />
<glyph unicode="w" horiz-adv-x="1712" d="M-2 1012h393l96 -279l78 -284l178 563h228l178 -563l76 286l94 277h395l-371 -1018h-346l-141 383l-139 -383h-350z" />
<glyph unicode="x" horiz-adv-x="1159" d="M0 0l340 508l-307 485v19h405l70 -123l72 -144l71 142l70 125h405v-19l-305 -483l338 -510h-416l-65 113l-98 172l-99 -172l-65 -113h-416z" />
<glyph unicode="y" horiz-adv-x="1191" d="M-6 1012h399l86 -242l111 -350l123 352l94 240h403l-626 -1440h-394l205 473z" />
<glyph unicode="z" horiz-adv-x="1013" d="M47 0v117l404 596h-365v299h846v-127l-385 -561h403v-324h-903z" />
<glyph unicode="{" horiz-adv-x="790" d="M55 440v262q42 0 69.5 10t39.5 28.5t16 35.5t4 41v273q0 184 79.5 280t262.5 96q86 0 191 -18v-250q-29 6 -52.5 7.5t-48 -3.5t-40.5 -19t-26.5 -41t-10.5 -67v-287q0 -47 -1.5 -68.5t-10 -54.5t-29.5 -55.5t-56 -42.5q59 -34 78 -84t19 -129v-278q1 -36 12 -60t25.5 -35 t41 -14t46.5 -2t53 6v-270q-110 -20 -191 -20q-176 0 -259 94t-83 264v289q0 22 -4 38.5t-16 35t-39.5 28.5t-69.5 10z" />
<glyph unicode="|" horiz-adv-x="636" d="M135 -143v1679h367v-1679h-367z" />
<glyph unicode="}" horiz-adv-x="790" d="M74 -29q33 -5 53 -6t46.5 2t41 14t25.5 35t12 60v278q0 79 18.5 129t77.5 84q-29 16 -48 36.5t-28.5 37t-14 46.5t-5 46t-0.5 55v287q0 40 -10.5 67t-26.5 41t-40.5 19t-48 3.5t-52.5 -7.5v250q105 18 190 18q183 0 262.5 -96t79.5 -280v-273q0 -24 4 -41t16 -35.5 t39.5 -28.5t69.5 -10v-262q-42 0 -69.5 -10t-39.5 -28.5t-16 -35t-4 -38.5v-289q0 -170 -83 -264t-259 -94q-80 0 -190 20v270z" />
<glyph unicode="~" horiz-adv-x="1267" d="M96 518q21 145 111.5 233t234.5 85q55 -1 121.5 -28.5t116 -55t97.5 -44t85.5 6.5t61.5 94l252 -92q-21 -145 -111.5 -233t-235.5 -85q-55 1 -116 28.5t-104.5 55t-89 44t-88.5 -6.5t-83 -94z" />
<glyph unicode="&#xa1;" horiz-adv-x="620" d="M96.5 789q-11.5 43 0 85.5t35.5 78t71.5 57.5t107.5 22q59 0 105.5 -22t70.5 -57.5t35 -78t0 -85.5t-35 -78.5t-70.5 -57.5t-105.5 -22q-60 0 -107 22t-71.5 57.5t-36 78.5zM109 -412h397l-6 963h-383z" />
<glyph unicode="&#xa2;" horiz-adv-x="1148" d="M88 504q0 200 101 326.5t266 175.5v174h329v-160q155 -32 269 -143l-201 -218q-71 74 -174 74q-104 0 -162.5 -66t-58.5 -165q0 -88 58 -148.5t161 -60.5q110 0 188 84l215 -225q-136 -123 -295 -158v-156h-329v168q-167 46 -267 169.5t-100 328.5z" />
<glyph unicode="&#xa3;" horiz-adv-x="1370" d="M102 0v319q62 2 105.5 39.5t60.5 87.5t13 101h-179v278h123q-16 71 -20 140q-9 219 132.5 354t401.5 135q159 0 274.5 -49.5t180 -156t57.5 -259.5h-358q-1 73 -39 110.5t-102 37.5q-73 0 -114.5 -43t-41.5 -127q0 -64 20 -142h388v-278h-340q8 -54 -11 -122.5 t-53 -102.5h682v-322h-1180z" />
<glyph unicode="&#xa4;" horiz-adv-x="1294" d="M92 938l248 248l143 -142q77 21 164 21q71 0 164 -21l139 142l248 -248l-115 -115q37 -78 37 -190q0 -106 -37 -191l113 -110l-248 -248l-137 137q-83 -22 -164 -22q-90 0 -166 20l-135 -137l-248 248l113 114q-35 81 -35 189q0 105 35 186zM492 633q0 -73 42 -114.5 t113 -41.5q72 0 114 41.5t42 114.5t-42 114t-114 41q-71 0 -113 -41t-42 -114z" />
<glyph unicode="&#xa5;" d="M57 1417v17h451l151 -252l152 -287l156 285l159 254h451v-19l-410 -602h164v-260h-327v-84h327v-244h-327v-225h-398v225h-321v244h321v84h-321v260h164z" />
<glyph unicode="&#xa6;" horiz-adv-x="651" d="M135 -176v749h381v-749h-381zM135 694v738h381v-738h-381z" />
<glyph unicode="&#xa7;" horiz-adv-x="1308" d="M76 141l162 240q191 -129 415 -129q195 0 195 63q0 27 -49.5 43t-136.5 15q-81 -1 -158 9t-149.5 35.5t-125.5 63.5t-83.5 97.5t-26.5 132.5q2 48 43 104.5t102 81.5q-72 39 -102.5 96t-30.5 111q0 67 24 121.5t66.5 92t96 65t117.5 42.5t125.5 22t125.5 7 q143 0 257.5 -31t225.5 -129l-198 -196q-95 73 -285 73q-184 0 -184 -59q0 -53 172 -53q56 0 107.5 -3.5t108.5 -14t104.5 -26.5t91 -42.5t72.5 -61.5t44.5 -85t11.5 -111q-6 -48 -41.5 -100t-85.5 -85q59 -39 92 -96.5t33 -114.5q0 -64 -21.5 -117.5t-56 -89.5t-84 -63.5 t-99.5 -43.5t-108 -26t-104.5 -13t-93.5 -3q-178 0 -315.5 37t-253.5 141zM469 721q0 -36 50.5 -57t129.5 -21q33 0 64 2.5t67.5 9.5t59 23.5t22.5 40.5q0 39 -50.5 59.5t-137.5 20.5q-205 0 -205 -78z" />
<glyph unicode="&#xa8;" horiz-adv-x="1157" d="M78 1282q0 82 56.5 129t133.5 47q78 0 136.5 -47t58.5 -129q0 -79 -58.5 -124.5t-136.5 -45.5q-77 0 -133.5 45.5t-56.5 124.5zM672 1282q0 82 57.5 129t136.5 47q76 0 134.5 -47.5t58.5 -128.5q0 -79 -58.5 -124.5t-134.5 -45.5q-79 0 -136.5 45.5t-57.5 124.5z" />
<glyph unicode="&#xa9;" horiz-adv-x="1675" d="M80 729q0 156 54 292.5t151.5 237.5t242.5 159.5t318 58.5q233 0 404 -98.5t257 -266t86 -383.5q0 -161 -50 -298t-144 -237t-236 -156t-317 -56q-173 0 -317.5 56.5t-242.5 155.5t-152 237t-54 298zM305 729q0 -247 148.5 -398t392.5 -151q245 0 384.5 148t139.5 401 q0 251 -139.5 399t-384.5 148q-243 0 -392 -153t-149 -394zM461 721q0 -120 57.5 -210t147 -133.5t196.5 -43.5q186 0 322 133l-140 139q-67 -67 -163 -67q-83 0 -143 47.5t-60 134.5q0 97 58.5 147t144.5 50q42 0 85.5 -17.5t73.5 -44.5l138 135q-132 129 -308 129 q-168 0 -283.5 -105.5t-125.5 -293.5z" />
<glyph unicode="&#xaa;" horiz-adv-x="897" d="M33 1081q0 167 90.5 261t234.5 94q136 0 203 -101l27 86h219v-680h-232l-16 90q-54 -106 -209 -106q-143 8 -230 98.5t-87 257.5zM74 422v217h727v-217h-727zM289 1081q0 -60 33 -92.5t86 -32.5q55 0 86.5 37t31.5 88q0 48 -31.5 85.5t-86.5 37.5q-53 0 -86 -32.5 t-33 -90.5z" />
<glyph unicode="&#xab;" horiz-adv-x="1142" d="M59 608l285 455h313v2l-284 -457q188 -312 284 -456h-313zM481 608l285 455h315v2l-284 -457l284 -456h-315z" />
<glyph unicode="&#xac;" horiz-adv-x="1140" d="M119 532v275h887v-531h-316v256h-571z" />
<glyph unicode="&#xad;" horiz-adv-x="1044" d="M111 444v299h823v-299h-823z" />
<glyph unicode="&#xae;" horiz-adv-x="1675" d="M80 729q0 156 54 292.5t151.5 237.5t242.5 159.5t318 58.5q233 0 404 -98.5t257 -266t86 -383.5q0 -161 -50 -298t-144 -237t-236 -156t-317 -56q-173 0 -317.5 56.5t-242.5 155.5t-152 237t-54 298zM305 729q0 -247 148.5 -398t392.5 -151q245 0 384.5 148t139.5 401 q0 251 -139.5 399t-384.5 148q-243 0 -392 -153t-149 -394zM547 348h211v221h86l123 -221h227l-170 264q50 14 87 47.5t53 77t18.5 92t-17.5 95t-54 83.5t-92.5 60t-131.5 23h-340v-742zM754 741v166h141q29 0 49 -17t25 -41.5t0.5 -49t-24 -41.5t-48.5 -17h-143z" />
<glyph unicode="&#xaf;" horiz-adv-x="927" d="M92 1149v287h717v-287h-717z" />
<glyph unicode="&#xb0;" horiz-adv-x="796" d="M70 1151q0 56 21 108t60 95.5t103.5 69.5t144.5 26q79 0 143 -26t103.5 -69t60.5 -95t21 -107q0 -122 -87 -208.5t-245 -86.5q-79 0 -142.5 25t-102.5 66.5t-59.5 93.5t-20.5 108zM303 1153q0 -36 25 -62t69 -26t69.5 26t25.5 62t-24 63t-71 27q-46 0 -70 -27t-24 -63z " />
<glyph unicode="&#xb1;" horiz-adv-x="1153" d="M119 -4v301h915v-301h-915zM123 672v319h280v275h349v-275h278v-319h-278v-275h-349v275h-280z" />
<glyph unicode="&#xb2;" horiz-adv-x="774" d="M72 774v203q0 38 9.5 69.5t22 53.5t37.5 41t43.5 30t52 22.5t51.5 16l54 13.5q27 7 36.5 9.5t31 8.5t29.5 10.5t20 12t16 16.5t4 20q0 31 -25.5 47.5t-68.5 16.5q-81 0 -94 -61h-215q1 118 90 187t217 69q139 0 230.5 -67.5t91.5 -191.5q0 -53 -18 -93t-45.5 -64 t-68 -41.5t-76 -27t-78.5 -18.5q-5 -1 -7 -1q-30 -6 -48 -11.5t-38 -13.5t-30.5 -20t-12.5 -27h415v-209h-626z" />
<glyph unicode="&#xb3;" horiz-adv-x="786" d="M55 1012h230q8 -58 98 -58q43 0 73.5 17t30.5 49q0 29 -26 46t-74 17h-127v164h119q52 0 77 18t25 46q0 27 -28 42t-76 15q-41 0 -73 -14.5t-38 -42.5h-196q0 82 49.5 140.5t118.5 83t145 24.5q58 0 112.5 -14t102 -43t76 -78.5t28.5 -114.5q0 -43 -24 -83.5t-64 -60.5 q55 -22 82 -66t27 -98q0 -57 -21.5 -101.5t-55 -70.5t-79.5 -42.5t-90 -22.5t-92 -6q-63 0 -120 15t-104.5 44.5t-76 79.5t-29.5 115z" />
<glyph unicode="&#xb4;" horiz-adv-x="589" d="M12 1094v12l158 330h395v-17l-223 -325h-330z" />
<glyph unicode="&#xb6;" horiz-adv-x="1824" d="M66 864q-17 190 79 340q114 176 340 218q65 12 136 12h1122v-344h-187v-1500h-372v1500h-250v-1500h-365v803q-226 0 -368 156q-118 129 -135 315z" />
<glyph unicode="&#xb7;" horiz-adv-x="610" d="M91 602.5q0 50.5 22 93.5t72 72t118 29t117.5 -29t72 -72t22.5 -93.5t-22 -93.5t-72 -72t-118 -29t-117.5 29t-72 72t-22.5 93.5z" />
<glyph unicode="&#xb8;" horiz-adv-x="745" d="M86 -408l129 136q30 -30 77.5 -46.5t90 -7t53.5 49.5q9 35 -21 60.5t-72 27t-81 -20.5l-57 43l86 225h241l-38 -108q130 -13 184.5 -98.5t19.5 -194.5q-23 -71 -81 -118.5t-131 -63.5t-149 -10t-144 39.5t-107 86.5z" />
<glyph unicode="&#xb9;" horiz-adv-x="585" d="M68 776v195h125v323q-15 -3 -52.5 -11.5t-52.5 -10.5v190l324 86v-577h129v-195h-473z" />
<glyph unicode="&#xba;" horiz-adv-x="870" d="M35 1085q0 182 109.5 277.5t289.5 95.5q181 0 290.5 -95.5t109.5 -277.5q0 -184 -110.5 -282t-289.5 -98q-178 0 -288.5 98t-110.5 282zM72 371v254h729v-254h-729zM311 1085q0 -59 35.5 -91.5t87.5 -32.5q53 0 88 32.5t35 91.5q0 58 -35 91.5t-88 33.5 q-52 0 -87.5 -33.5t-35.5 -91.5z" />
<glyph unicode="&#xbb;" horiz-adv-x="1140" d="M66 158l284 454l-284 457v-2h313l285 -455l-285 -454h-313zM483 158l285 454l-285 457v-2h316l284 -455l-284 -454h-316z" />
<glyph unicode="&#xbc;" horiz-adv-x="1634" d="M86 662v198h125v320q-10 -2 -33 -7t-42 -8.5t-32 -5.5v189l328 86v-574h127v-198h-473zM274 -2l795 1444h252l-799 -1444h-248zM858 309l338 453h279v-445h90v-194h-90v-123h-213v123h-396zM1094 317h168v213q-24 -29 -78.5 -99.5t-89.5 -113.5z" />
<glyph unicode="&#xbd;" horiz-adv-x="1662" d="M80 659v199h125v320q-10 -3 -105 -21v191l326 86v-576h129v-199h-475zM264 -4l795 1446h248l-799 -1446h-244zM956 -10v203q0 37 9.5 68.5t22 53.5t37 41t43.5 30t51.5 22.5t51.5 16.5t54 13t54 13t42 14t33 21.5t10 29.5q0 29 -27 44t-63 15t-64 -14.5t-34 -42.5h-215 q1 117 92 185.5t215 68.5q143 0 232 -66t89 -190q0 -45 -11.5 -81t-36 -61.5t-48 -43t-63 -31.5t-64 -20.5t-66.5 -16.5q-122 -22 -133 -59h416v-213h-627z" />
<glyph unicode="&#xbe;" horiz-adv-x="1724" d="M72 924h221q8 -56 96 -56q42 0 71 16t29 48q0 27 -25 44t-71 17h-123v158h115q98 0 98 61q0 26 -27 41t-73 15q-40 0 -71.5 -15t-35.5 -41h-190q0 60 27.5 108t72.5 75.5t97 42t106 14.5q56 0 108 -14t98 -41.5t73.5 -76t27.5 -110.5q0 -41 -22.5 -80t-61.5 -59 q53 -21 79 -63t26 -95q0 -69 -30 -117.5t-81 -73t-103.5 -34.5t-111.5 -10q-83 0 -152.5 24t-117.5 81.5t-49 140.5zM375 -12l801 1454h251l-802 -1454h-250zM948 309l340 453h277v-445h90v-194h-90v-123h-213v123h-396zM1186 317h166v213z" />
<glyph unicode="&#xbf;" horiz-adv-x="1216" d="M63 4q-1 -92 30 -165.5t83 -121.5t125.5 -80.5t154 -46.5t171.5 -14q112 0 211 31t175 89.5t115.5 151.5t28.5 207h-360q0 -151 -170 -151q-73 0 -112.5 36t-37.5 87q1 33 24 59.5t74 56.5q4 2 12 7q32 19 49 29.5t47 32.5t47 41t39 51t35 66t23 82t13 103h-398 q-1 -53 -22.5 -97t-55 -75.5t-73.5 -60.5t-80 -59.5t-73 -65t-54 -84t-21 -109.5zM422.5 793q-11.5 43 0 85.5t35.5 78t71.5 57.5t107.5 22q59 0 105.5 -22t70.5 -57.5t35 -78t0 -85.5t-35 -78.5t-70.5 -57.5t-105.5 -22q-60 0 -107 22t-71.5 57.5t-36 78.5z" />
<glyph unicode="&#xc0;" d="M-31 0l643 1434h410l641 -1434h-434l-94 236h-641l-95 -236h-430zM434 1866v16h395l158 -330v-12h-330zM631 575h366l-182 457z" />
<glyph unicode="&#xc1;" d="M-31 0h430l95 236h641l94 -236h434l-641 1434h-410zM631 575l184 457l182 -457h-366zM657 1540v12l158 330h395v-16l-223 -326h-330z" />
<glyph unicode="&#xc2;" d="M-31 0h430l95 236h641l94 -236h434l-641 1434h-410zM385 1536v16l311 322h234l311 -322v-16h-323l-105 96l-104 -96h-324zM631 575l184 457l182 -457h-366z" />
<glyph unicode="&#xc3;" d="M-31 0l643 1434h410l641 -1434h-434l-94 236h-641l-95 -236h-430zM379 1681q25 68 75.5 114.5t111 64.5t127 11.5t126.5 -38.5q48 -26 85 -33.5t72 8.5t62 60l199 -129q-55 -142 -171 -186.5t-265 26.5q-161 88 -215 -29zM631 575h366l-182 457z" />
<glyph unicode="&#xc4;" d="M-31 0h430l95 236h641l94 -236h434l-641 1434h-410zM324 1700q0 82 56.5 129t133.5 47q78 0 136.5 -47t58.5 -129q0 -79 -58.5 -124.5t-136.5 -45.5q-77 0 -133.5 45.5t-56.5 124.5zM631 575l184 457l182 -457h-366zM918 1700q0 82 57.5 129t136.5 47q76 0 134.5 -47.5 t58.5 -128.5q0 -79 -58.5 -124.5t-134.5 -45.5q-79 0 -136.5 45.5t-57.5 124.5z" />
<glyph unicode="&#xc5;" d="M-31 0l598 1331q-35 41 -51.5 92.5t-15 103t23.5 101t60 87.5t98.5 61.5t134.5 23.5q90 0 159.5 -33t106 -86.5t50.5 -116t-3.5 -126t-60.5 -111.5l594 -1327h-434l-94 236h-641l-95 -236h-430zM631 575h366l-84 211l-98 299l-100 -299zM725 1509q0 -32 25.5 -59 t70.5 -27q44 0 68.5 27t24 59t-25 59t-67.5 27q-45 0 -70.5 -27t-25.5 -59z" />
<glyph unicode="&#xc6;" horiz-adv-x="1894" d="M-53 0v23l850 1411h983v-324h-498v-225h463v-314h-463v-249h528v-322h-901v215h-426l-129 -215h-407zM686 569h223l6 238l25 254z" />
<glyph unicode="&#xc7;" horiz-adv-x="1449" d="M70 707q-1 113 28 220.5t92.5 206t153.5 172t221.5 117t288.5 43.5q320 0 555 -229l-250 -246q-130 125 -305 125q-80 0 -146 -25t-109 -66t-73 -95t-43 -110.5t-12 -114.5q1 -74 22 -141.5t63.5 -126.5t119.5 -94.5t178 -35.5q80 0 173.5 36.5t164.5 109.5l238 -267 q-213 -210 -541 -223l-25 -67q133 -13 189.5 -96t21.5 -189q-24 -69 -84 -115t-135 -61t-153.5 -9.5t-148 38t-110.5 83.5l134 131q31 -29 80 -45t92.5 -7t54.5 48q9 34 -21.5 59t-73.5 26.5t-83 -19.5l-60 43l80 199q-121 22 -218 72t-163 118.5t-110.5 155.5t-64.5 181 t-21 198z" />
<glyph unicode="&#xc8;" horiz-adv-x="1376" d="M145 0v1434h1119v-340h-719v-205h678v-330h-678v-217h747v-342h-1147zM362 1864v16h396l157 -330v-12h-329z" />
<glyph unicode="&#xc9;" horiz-adv-x="1376" d="M145 0h1147v342h-747v217h678v330h-678v205h719v340h-1119v-1434zM532 1538v12l158 330h395v-16l-223 -326h-330z" />
<glyph unicode="&#xca;" horiz-adv-x="1376" d="M145 0h1147v342h-747v217h678v330h-678v205h719v340h-1119v-1434zM295 1530v16l311 322h234l311 -322v-16h-324l-104 96l-105 -96h-323z" />
<glyph unicode="&#xcb;" horiz-adv-x="1376" d="M145 0h1147v342h-747v217h678v330h-678v205h719v340h-1119v-1434zM229 1712q0 82 57 129t134 47q78 0 136 -47t58 -129q0 -79 -58 -124.5t-136 -45.5q-77 0 -134 45.5t-57 124.5zM823 1712q0 82 58 129t137 47q76 0 134 -47.5t58 -128.5q0 -79 -58 -124.5t-134 -45.5 q-79 0 -137 45.5t-58 124.5z" />
<glyph unicode="&#xcc;" horiz-adv-x="694" d="M-18 1864v16h395l158 -330v-12h-330zM145 0v1434h404v-1434h-404z" />
<glyph unicode="&#xcd;" horiz-adv-x="694" d="M145 0h404v1434h-404v-1434zM164 1534v12l158 330h395v-16l-223 -326h-330z" />
<glyph unicode="&#xce;" horiz-adv-x="694" d="M-76 1536v16l312 322h233l311 -322v-16h-323l-105 96l-104 -96h-324zM145 0h404v1434h-404v-1434z" />
<glyph unicode="&#xcf;" horiz-adv-x="694" d="M-102 1735q0 82 56.5 129t133.5 47q78 0 136.5 -47t58.5 -129q0 -79 -58.5 -124.5t-136.5 -45.5q-77 0 -133.5 45.5t-56.5 124.5zM145 0h404v1434h-404v-1434zM436 1735q0 82 58 129t137 47q76 0 134 -47.5t58 -128.5q0 -79 -58 -124.5t-134 -45.5q-79 0 -137 45.5 t-58 124.5z" />
<glyph unicode="&#xd0;" horiz-adv-x="1583" d="M14 575v291h160v568h571q181 0 327.5 -53.5t242.5 -147.5t147 -220.5t51 -273.5q0 -155 -47.5 -287t-140 -234t-241.5 -160t-339 -58h-571v575h-160zM565 332h180q183 0 274 106.5t93 300.5q1 185 -93 278t-274 93h-180v-244h248v-291h-248v-243z" />
<glyph unicode="&#xd1;" horiz-adv-x="1636" d="M145 0v1434h344l607 -785q-6 108 -13 293v492h408v-1434h-344l-598 772l6 -313v-459h-410zM346 1716q27 73 80 122.5t117.5 68t135 12t134.5 -40.5q51 -28 90.5 -36t77 9t66.5 64l210 -137q-59 -151 -182.5 -198.5t-281.5 28.5q-37 21 -69.5 31t-63 9t-55 -19t-40.5 -52z " />
<glyph unicode="&#xd2;" horiz-adv-x="1724" d="M66 717q0 231 101.5 402.5t280.5 260t414 88.5q236 0 415 -87.5t280.5 -258.5t101.5 -405q0 -235 -101.5 -406.5t-280.5 -258.5t-415 -87q-235 0 -414 87t-280.5 258.5t-101.5 406.5zM471 717q0 -180 109.5 -293t281.5 -113q177 0 284 113t107 293q0 185 -106.5 295 t-284.5 110q-173 0 -282 -113t-109 -292zM506 1901v16h395l158 -330v-12h-330z" />
<glyph unicode="&#xd3;" horiz-adv-x="1724" d="M66 717q0 -235 101.5 -406.5t280.5 -258.5t414 -87q236 0 415 87t280.5 258.5t101.5 406.5q0 234 -101.5 405t-280.5 258.5t-415 87.5q-235 0 -414 -88.5t-280.5 -260t-101.5 -402.5zM471 717q0 179 109 292t282 113q178 0 284.5 -110t106.5 -295q0 -180 -107 -293 t-284 -113q-172 0 -281.5 113t-109.5 293zM680 1575v12l158 330h395v-16l-223 -326h-330z" />
<glyph unicode="&#xd4;" horiz-adv-x="1724" d="M66 717q0 -235 101.5 -406.5t280.5 -258.5t414 -87q236 0 415 87t280.5 258.5t101.5 406.5q0 234 -101.5 405t-280.5 258.5t-415 87.5q-235 0 -414 -88.5t-280.5 -260t-101.5 -402.5zM440 1563v16l312 322h233l311 -322v-16h-323l-105 96l-104 -96h-324zM471 717 q0 179 109 292t282 113q178 0 284.5 -110t106.5 -295q0 -180 -107 -293t-284 -113q-172 0 -281.5 113t-109.5 293z" />
<glyph unicode="&#xd5;" horiz-adv-x="1724" d="M66 717q0 231 101.5 402.5t280.5 260t414 88.5q236 0 415 -87.5t280.5 -258.5t101.5 -405q0 -235 -101.5 -406.5t-280.5 -258.5t-415 -87q-235 0 -414 87t-280.5 258.5t-101.5 406.5zM416 1722q27 72 80 120t116.5 67t133.5 12t133 -41q50 -27 88.5 -35t75 9t65.5 63 l207 -135q-56 -148 -178.5 -195t-278.5 27q-167 94 -225 -29zM471 717q0 -180 109.5 -293t281.5 -113q177 0 284 113t107 293q0 185 -106.5 295t-284.5 110q-173 0 -282 -113t-109 -292z" />
<glyph unicode="&#xd6;" horiz-adv-x="1724" d="M66 717q0 -235 101.5 -406.5t280.5 -258.5t414 -87q236 0 415 87t280.5 258.5t101.5 406.5q0 234 -101.5 405t-280.5 258.5t-415 87.5q-235 0 -414 -88.5t-280.5 -260t-101.5 -402.5zM377 1726q0 82 56.5 129.5t133.5 47.5q78 0 136.5 -47.5t58.5 -129.5 q0 -79 -58.5 -124.5t-136.5 -45.5q-77 0 -133.5 45.5t-56.5 124.5zM471 717q0 179 109 292t282 113q178 0 284.5 -110t106.5 -295q0 -180 -107 -293t-284 -113q-172 0 -281.5 113t-109.5 293zM971 1726q0 82 57.5 129.5t136.5 47.5q76 0 134.5 -48t58.5 -129 q0 -79 -58.5 -124.5t-134.5 -45.5q-79 0 -136.5 45.5t-57.5 124.5z" />
<glyph unicode="&#xd7;" horiz-adv-x="974" d="M84 469l172 170l-166 170l240 231l162 -172l170 174l227 -227l-178 -182l178 -178l-232 -217l-170 172q-106 -110 -165 -174z" />
<glyph unicode="&#xd8;" horiz-adv-x="1724" d="M66 717q0 231 101.5 402.5t280.5 260t414 88.5q157 0 291 -41l96 148h355l-187 -287q242 -203 242 -571q0 -235 -101.5 -406.5t-280.5 -258.5t-415 -87q-147 0 -278 35l-99 -152h-350l184 285q-253 204 -253 584zM471 717q0 -138 68 -242l413 639q-58 8 -90 8 q-173 0 -282 -113t-109 -292zM788 317q37 -6 74 -6q177 0 284 113t107 293q0 132 -57 229z" />
<glyph unicode="&#xd9;" horiz-adv-x="1597" d="M123 635v797h403v-797q0 -163 72.5 -241.5t200.5 -78.5q127 0 199.5 79t72.5 237v801h404v-801q1 -315 -178.5 -488.5t-497.5 -173.5q-320 0 -498 171t-178 495zM442 1878v16h396l157 -329v-13h-329z" />
<glyph unicode="&#xda;" horiz-adv-x="1597" d="M123 635q0 -324 178 -495t498 -171q318 0 497.5 173.5t178.5 488.5v801h-404v-801q0 -158 -72.5 -237t-199.5 -79q-128 0 -200.5 78.5t-72.5 241.5v797h-403v-797zM608 1550v13l158 329h395v-16l-223 -326h-330z" />
<glyph unicode="&#xdb;" horiz-adv-x="1597" d="M123 635q0 -324 178 -495t498 -171q318 0 497.5 173.5t178.5 488.5v801h-404v-801q0 -158 -72.5 -237t-199.5 -79q-128 0 -200.5 78.5t-72.5 241.5v797h-403v-797zM377 1565v16l311 322h234l311 -322v-16h-324l-104 96l-105 -96h-323z" />
<glyph unicode="&#xdc;" horiz-adv-x="1597" d="M123 635q0 -324 178 -495t498 -171q318 0 497.5 173.5t178.5 488.5v801h-404v-801q0 -158 -72.5 -237t-199.5 -79q-128 0 -200.5 78.5t-72.5 241.5v797h-403v-797zM303 1737q0 82 57 129t134 47q78 0 136 -47t58 -129q0 -79 -58 -124.5t-136 -45.5q-77 0 -134 45.5 t-57 124.5zM897 1737q0 82 58 129t137 47q76 0 134 -47.5t58 -128.5q0 -79 -58 -124.5t-134 -45.5q-79 0 -137 45.5t-58 124.5z" />
<glyph unicode="&#xdd;" horiz-adv-x="1478" d="M-12 1417l544 -846v-571h406v571l569 844v19h-456l-310 -492l-297 492h-456v-17zM563 1550v13l158 329h395v-16l-223 -326h-330z" />
<glyph unicode="&#xde;" horiz-adv-x="1425" d="M143 0l2 1434h402v-222h274q139 0 250.5 -42t181 -112t106 -157t36.5 -182t-36.5 -182t-106 -157.5t-181 -112.5t-250.5 -42h-274v-225h-404zM547 557h274q81 0 126.5 47t45.5 111t-45.5 111.5t-126.5 47.5h-274v-317z" />
<glyph unicode="&#xdf;" horiz-adv-x="1298" d="M111 0v1038q0 79 30 147.5t81.5 117.5t119.5 84t144.5 52t156.5 17q78 0 149.5 -13.5t138 -44t114.5 -76t77 -114t29 -153.5q0 -88 -48.5 -155t-131.5 -105q77 -28 132 -69.5t85 -90.5t43.5 -98.5t13.5 -104.5q0 -111 -39 -198t-108 -142t-160 -83.5t-199 -28.5 q-81 0 -145 10v299q63 -13 86 -13q43 0 75.5 12.5t50.5 31t29.5 44.5t15 48t3.5 47q0 38 -12 66.5t-31 45t-47.5 26t-55.5 12.5t-61 3h-53v330h33q63 0 98 26.5t35 73.5t-35.5 74t-83.5 27q-61 0 -97.5 -29.5t-37.5 -81.5v-1032h-395z" />
<glyph unicode="&#xe0;" horiz-adv-x="1327" d="M55 506q0 227 137 377.5t355 150.5q212 0 297 -131l18 109h355v-1012h-349l-16 109q-61 -69 -151.5 -100.5t-182.5 -26.5q-219 13 -341 155.5t-122 368.5zM338 1450v14h387l156 -323v-13h-324zM430 506q0 -103 57.5 -162t145.5 -59q93 0 151 64.5t58 156.5q0 103 -55 163 t-154 60q-88 0 -145.5 -60t-57.5 -163z" />
<glyph unicode="&#xe1;" horiz-adv-x="1327" d="M55 506q0 -226 122 -368.5t341 -155.5q92 -5 182.5 26.5t151.5 100.5l16 -109h349v1012h-355l-18 -109q-85 131 -297 131q-218 0 -355 -150.5t-137 -377.5zM430 506q0 103 57.5 163t145.5 60q99 0 154 -60t55 -163q0 -92 -58 -156.5t-151 -64.5q-88 0 -145.5 59 t-57.5 162zM479 1128v13l154 321h387v-16l-219 -318h-322z" />
<glyph unicode="&#xe2;" horiz-adv-x="1327" d="M55 506q0 -226 122 -368.5t341 -155.5q92 -5 182.5 26.5t151.5 100.5l16 -109h349v1012h-355l-18 -109q-85 131 -297 131q-218 0 -355 -150.5t-137 -377.5zM250 1126v17l311 321h234l311 -321v-17h-324l-104 97l-105 -97h-323zM430 506q0 103 57.5 163t145.5 60 q99 0 154 -60t55 -163q0 -92 -58 -156.5t-151 -64.5q-88 0 -145.5 59t-57.5 162z" />
<glyph unicode="&#xe3;" horiz-adv-x="1327" d="M55 506q0 227 137 377.5t355 150.5q212 0 297 -131l18 109h355v-1012h-349l-16 109q-61 -69 -151.5 -100.5t-182.5 -26.5q-219 13 -341 155.5t-122 368.5zM256 1280q25 70 73.5 117.5t106.5 65.5t122 11t122 -40q34 -19 62 -28t55.5 -7.5t51 19.5t42.5 52l190 -133 q-53 -145 -165 -190.5t-254 27.5q-155 92 -207 -29zM430 506q0 -103 57.5 -162t145.5 -59q93 0 151 64.5t58 156.5q0 103 -55 163t-154 60q-88 0 -145.5 -60t-57.5 -163z" />
<glyph unicode="&#xe4;" horiz-adv-x="1327" d="M55 506q0 -226 122 -368.5t341 -155.5q92 -5 182.5 26.5t151.5 100.5l16 -109h349v1012h-355l-18 -109q-85 131 -297 131q-218 0 -355 -150.5t-137 -377.5zM250 1300q0 82 56.5 129.5t133.5 47.5q78 0 136.5 -47.5t58.5 -129.5q0 -79 -58.5 -124.5t-136.5 -45.5 q-77 0 -133.5 45.5t-56.5 124.5zM430 506q0 103 57.5 163t145.5 60q99 0 154 -60t55 -163q0 -92 -58 -156.5t-151 -64.5q-88 0 -145.5 59t-57.5 162zM774 1300q0 82 58 129.5t137 47.5q76 0 134 -47.5t58 -129.5q0 -79 -58 -124.5t-134 -45.5q-79 0 -137 45.5t-58 124.5z " />
<glyph unicode="&#xe5;" horiz-adv-x="1327" d="M55 506q0 227 137 377.5t355 150.5q212 0 297 -131l18 109h355v-1012h-349l-16 109q-61 -69 -151.5 -100.5t-182.5 -26.5q-219 13 -341 155.5t-122 368.5zM355 1363q0 47 19.5 92t56 80.5t96 57t132.5 21.5q74 0 134 -21.5t97 -57t57 -80.5t20.5 -92t-19.5 -92 t-56.5 -80.5t-97 -57t-135.5 -21.5q-73 0 -132 21.5t-95.5 57t-56.5 80.5t-20 92zM430 506q0 -103 57.5 -162t145.5 -59q93 0 151 64.5t58 156.5q0 103 -55 163t-154 60q-88 0 -145.5 -60t-57.5 -163zM587 1329q22 -35 75 -35t74.5 35t-0.5 70t-74 35q-53 0 -75 -35t0 -70z " />
<glyph unicode="&#xe6;" horiz-adv-x="1937" d="M55 506q0 227 137 377.5t355 150.5q212 0 297 -131l18 109h238l6 -84q129 105 303 102q112 -1 208 -43t163.5 -122.5t91.5 -198t-8 -267.5h-693q19 -62 89.5 -95.5t142.5 -33.5q150 0 260 82l184 -207q-89 -83 -208.5 -125.5t-252.5 -42.5q-192 0 -280 115l-6 -92h-232 l-16 109q-61 -69 -151.5 -100.5t-182.5 -26.5q-219 13 -341 155.5t-122 368.5zM442 506q0 -103 57.5 -162t145.5 -59q95 0 154 58.5t59 152.5q0 110 -56.5 171.5t-156.5 61.5q-88 0 -145.5 -60t-57.5 -163zM1174 641h372q-3 46 -40 77.5t-88.5 39.5t-104 1t-92.5 -39 t-47 -79z" />
<glyph unicode="&#xe7;" horiz-adv-x="1064" d="M55 504q0 107 32 196t86 150t127 103t154.5 61.5t168.5 19.5q112 0 215.5 -39.5t181.5 -117.5l-201 -218q-71 74 -174 74q-104 0 -162.5 -66t-58.5 -165q0 -88 58 -148.5t161 -60.5q110 0 188 84l216 -225q-173 -152 -369 -170l-33 -86q132 -13 188.5 -90.5t22.5 -176.5 q-23 -67 -82 -113t-133 -62t-152 -11t-147 37t-109 84l132 125q30 -28 78 -43.5t91 -7t54 46.5q9 33 -21 56.5t-72.5 25t-82.5 -18.5l-58 39l88 213q-175 43 -281 168t-106 336z" />
<glyph unicode="&#xe8;" horiz-adv-x="1208" d="M55 504q0 107 32.5 196.5t87 150.5t127 103.5t152.5 62t164 19.5q135 0 245.5 -43.5t183.5 -125.5t100.5 -200t-4.5 -268h-707q19 -62 87 -95.5t139 -33.5q150 0 260 82l184 -207q-89 -83 -208.5 -125.5t-252.5 -42.5q-123 0 -227.5 31t-186.5 93.5t-129 165.5t-47 237z M293 1448v16h383l153 -319v-12h-319zM438 641h367q-3 46 -39.5 77.5t-87.5 39.5t-102.5 1t-91 -39t-46.5 -79z" />
<glyph unicode="&#xe9;" horiz-adv-x="1208" d="M55 504q0 107 32.5 196.5t87 150.5t127 103.5t152.5 62t164 19.5q135 0 245.5 -43.5t183.5 -125.5t100.5 -200t-4.5 -268h-707q19 -62 87 -95.5t139 -33.5q150 0 260 82l184 -207q-89 -83 -208.5 -125.5t-252.5 -42.5q-123 0 -227.5 31t-186.5 93.5t-129 165.5t-47 237z M438 641h367q-3 46 -39.5 77.5t-87.5 39.5t-102.5 1t-91 -39t-46.5 -79zM449 1130v13l153 319h383v-16l-217 -316h-319z" />
<glyph unicode="&#xea;" horiz-adv-x="1208" d="M55 504q0 107 32.5 196.5t87 150.5t127 103.5t152.5 62t164 19.5q135 0 245.5 -43.5t183.5 -125.5t100.5 -200t-4.5 -268h-707q19 -62 87 -95.5t139 -33.5q150 0 260 82l184 -207q-89 -83 -208.5 -125.5t-252.5 -42.5q-123 0 -227.5 31t-186.5 93.5t-129 165.5t-47 237z M195 1118v17l311 321h233l312 -321v-17h-324l-104 96l-105 -96h-323zM438 641h367q-3 46 -39.5 77.5t-87.5 39.5t-102.5 1t-91 -39t-46.5 -79z" />
<glyph unicode="&#xeb;" horiz-adv-x="1208" d="M55 504q0 107 32.5 196.5t87 150.5t127 103.5t152.5 62t164 19.5q135 0 245.5 -43.5t183.5 -125.5t100.5 -200t-4.5 -268h-707q19 -62 87 -95.5t139 -33.5q150 0 260 82l184 -207q-89 -83 -208.5 -125.5t-252.5 -42.5q-123 0 -227.5 31t-186.5 93.5t-129 165.5t-47 237z M217 1300q0 78 54 123t126 45q74 0 129.5 -45t55.5 -123q0 -74 -55.5 -117.5t-129.5 -43.5q-72 0 -126 43.5t-54 117.5zM438 641h367q-3 46 -39.5 77.5t-87.5 39.5t-102.5 1t-91 -39t-46.5 -79zM717 1300q0 78 54.5 123t129.5 45q72 0 127 -45.5t55 -122.5 q0 -74 -55.5 -117.5t-126.5 -43.5q-75 0 -129.5 43.5t-54.5 117.5z" />
<glyph unicode="&#xec;" horiz-adv-x="598" d="M0 1430v16h350l107 -322v-12h-305zM111 0v1012h376v-1012h-376z" />
<glyph unicode="&#xed;" horiz-adv-x="598" d="M111 0h376v1012h-376v-1012zM113 1112v12l116 322h351v-16l-152 -318h-315z" />
<glyph unicode="&#xee;" horiz-adv-x="598" d="M-90 1110v16l276 326h207l275 -326v-16h-291l-88 92l-92 -92h-287zM111 0h376v1012h-376v-1012z" />
<glyph unicode="&#xef;" horiz-adv-x="598" d="M-113 1268q0 85 53.5 133.5t127.5 48.5q73 0 128.5 -49t55.5 -133q0 -80 -55.5 -127t-128.5 -47q-74 0 -127.5 46.5t-53.5 127.5zM111 0h376v1012h-376v-1012zM338 1268q0 85 55 133.5t129 48.5q73 0 128 -49t55 -133q0 -80 -55 -127t-128 -47q-74 0 -129 47t-55 127z " />
<glyph unicode="&#xf0;" horiz-adv-x="1198" d="M55 487q0 219 141.5 359.5t366.5 140.5q43 0 66 -2q-77 67 -188 110t-216 56l58 268q194 -24 319 -76l109 130l211 -162l-88 -103q113 -88 184.5 -211.5t96.5 -241.5t22 -243q-7 -117 -41.5 -211.5t-98.5 -166.5t-165.5 -111t-235.5 -39q-130 0 -235.5 42.5t-171 113.5 t-100 160t-34.5 187zM425 446q9 -43 28 -78t56.5 -57t86.5 -22t87.5 22t59 57t30 77.5t0 85.5t-29 78t-58.5 57t-89 22q-47 0 -84.5 -22t-57 -57t-29 -77.5t-0.5 -85.5z" />
<glyph unicode="&#xf1;" horiz-adv-x="1273" d="M111 0v1012h333l17 -111q61 71 146.5 104t172.5 31q67 -1 123.5 -15.5t107.5 -49t87 -88t57 -135.5t21 -187v-561h-377v559q0 87 -41 127.5t-101 40.5q-73 0 -123.5 -50.5t-50.5 -144.5v-532h-372zM266 1303q23 69 68.5 115.5t100 64.5t114.5 11t113 -40q33 -19 59 -28 t51.5 -7t47 20t40.5 52l178 -131q-48 -143 -153.5 -188.5t-239.5 26.5q-143 91 -192 -29z" />
<glyph unicode="&#xf2;" horiz-adv-x="1265" d="M55 504q0 109 32 198.5t87 150.5t129.5 102.5t157 60t172.5 18.5q92 0 175 -19.5t157 -61.5t128 -103t85.5 -149.5t31.5 -196.5q0 -107 -33 -196t-88 -150t-129.5 -103t-156.5 -61t-170 -19q-89 0 -172 19t-157 61t-129 103t-87.5 150t-32.5 196zM283 1452v14h397 l158 -313v-12h-332zM424 504q0 -92 56.5 -155.5t152.5 -63.5q94 0 151.5 62.5t57.5 156.5q0 92 -56.5 156.5t-152.5 64.5t-152.5 -64.5t-56.5 -156.5z" />
<glyph unicode="&#xf3;" horiz-adv-x="1265" d="M55 504q0 -107 32.5 -196t87.5 -150t129 -103t157 -61t172 -19q88 0 170 19t156.5 61t129.5 103t88 150t33 196q0 108 -31.5 196.5t-85.5 149.5t-128 103t-157 61.5t-175 19.5q-90 0 -172.5 -18.5t-157 -60t-129.5 -102.5t-87 -150.5t-32 -198.5zM424 504 q0 92 56.5 156.5t152.5 64.5t152.5 -64.5t56.5 -156.5q0 -94 -57.5 -156.5t-151.5 -62.5q-96 0 -152.5 63.5t-56.5 155.5zM436 1130v13l154 317h387v-16l-219 -314h-322z" />
<glyph unicode="&#xf4;" horiz-adv-x="1265" d="M55 504q0 -107 32.5 -196t87.5 -150t129 -103t157 -61t172 -19q88 0 170 19t156.5 61t129.5 103t88 150t33 196q0 108 -31.5 196.5t-85.5 149.5t-128 103t-157 61.5t-175 19.5q-90 0 -172.5 -18.5t-157 -60t-129.5 -102.5t-87 -150.5t-32 -198.5zM205 1116v17l311 321 h234l311 -321v-17h-324l-104 96l-105 -96h-323zM424 504q0 92 56.5 156.5t152.5 64.5t152.5 -64.5t56.5 -156.5q0 -94 -57.5 -156.5t-151.5 -62.5q-96 0 -152.5 63.5t-56.5 155.5z" />
<glyph unicode="&#xf5;" horiz-adv-x="1265" d="M55 504q0 109 32 198.5t87 150.5t129.5 102.5t157 60t172.5 18.5q92 0 175 -19.5t157 -61.5t128 -103t85.5 -149.5t31.5 -196.5q0 -107 -33 -196t-88 -150t-129.5 -103t-156.5 -61t-170 -19q-89 0 -172 19t-157 61t-129 103t-87.5 150t-32.5 196zM246 1270 q24 71 71.5 119t105 66t121 11t120.5 -41q33 -19 60.5 -28t54 -7t49.5 20t42 52l187 -133q-52 -145 -162 -191t-250 27q-152 90 -203 -28zM424 504q0 -92 56.5 -155.5t152.5 -63.5q94 0 151.5 62.5t57.5 156.5q0 92 -56.5 156.5t-152.5 64.5t-152.5 -64.5t-56.5 -156.5z" />
<glyph unicode="&#xf6;" horiz-adv-x="1265" d="M55 510q0 -133 49 -237t131.5 -166t183.5 -93.5t214 -31.5q88 0 170 19t156.5 61t129.5 102.5t88 149.5t33 196q0 108 -31.5 196.5t-85.5 149.5t-128 103t-157 61.5t-175 19.5q-90 0 -172.5 -18.5t-157 -60t-129.5 -102.5t-87 -150.5t-32 -198.5zM197 1307q0 82 56.5 129 t133.5 47q78 0 136.5 -47t58.5 -129q0 -79 -58.5 -124.5t-136.5 -45.5q-77 0 -133.5 45.5t-56.5 124.5zM424 510q0 92 56.5 156.5t152.5 64.5t152.5 -64.5t56.5 -156.5q0 -94 -57.5 -156.5t-151.5 -62.5q-96 0 -152.5 63.5t-56.5 155.5zM688 1307q0 82 58 129t137 47 q76 0 134 -47.5t58 -128.5q0 -79 -58 -124.5t-134 -45.5q-79 0 -137 45.5t-58 124.5z" />
<glyph unicode="&#xf7;" horiz-adv-x="1107" d="M78 520h952v297h-952v-297zM362 272q0 87 59 135t142 48q82 0 141.5 -48t59.5 -135q0 -84 -60 -131t-141 -47q-83 0 -142 47t-59 131zM362 1067q0 87 59 133.5t142 46.5q82 0 141.5 -46.5t59.5 -133.5q0 -86 -59.5 -133t-141.5 -47q-83 0 -142 47t-59 133z" />
<glyph unicode="&#xf8;" horiz-adv-x="1267" d="M57 504q0 111 32 201t86.5 150.5t129.5 101.5t157.5 59t172.5 18q57 0 125 -10l67 113h349l-138 -226q174 -141 174 -407q0 -111 -33 -201t-88 -150t-130 -101t-156.5 -59t-169.5 -18q-29 0 -117 9l-63 -107h-351l134 219q-181 139 -181 408zM434 504q0 -96 52.5 -157.5 t148.5 -61.5t148.5 61.5t52.5 157.5q0 97 -52.5 159t-148.5 62t-148.5 -62t-52.5 -159z" />
<glyph unicode="&#xf9;" horiz-adv-x="1273" d="M98 451v561h377v-559q0 -87 41 -127.5t100 -40.5q74 0 124.5 47t50.5 141v539h372v-1012h-334l-16 111q-61 -71 -146.5 -104.5t-172.5 -31.5q-67 1 -123.5 15.5t-107.5 49.5t-87 88.5t-57 135.5t-21 187zM266 1436v16h396l157 -317v-11h-330z" />
<glyph unicode="&#xfa;" horiz-adv-x="1273" d="M98 451q0 -105 21 -187t57 -135.5t87 -88.5t107.5 -49.5t123.5 -15.5q87 -2 172.5 31.5t146.5 104.5l16 -111h334v1012h-372v-539q0 -94 -50.5 -141t-124.5 -47q-59 0 -100 40.5t-41 127.5v559h-377v-561zM455 1126v13l159 321h398v-16l-226 -318h-331z" />
<glyph unicode="&#xfb;" horiz-adv-x="1273" d="M98 451q0 -105 21 -187t57 -135.5t87 -88.5t107.5 -49.5t123.5 -15.5q87 -2 172.5 31.5t146.5 104.5l16 -111h334v1012h-372v-539q0 -94 -50.5 -141t-124.5 -47q-59 0 -100 40.5t-41 127.5v559h-377v-561zM190 1137v16l318 307h240l317 -307v-16h-330l-106 92l-107 -92 h-332z" />
<glyph unicode="&#xfc;" horiz-adv-x="1273" d="M98 451q0 -105 21 -187t57 -135.5t87 -88.5t107.5 -49.5t123.5 -15.5q87 -2 172.5 31.5t146.5 104.5l16 -111h334v1012h-372v-539q0 -94 -50.5 -141t-124.5 -47q-59 0 -100 40.5t-41 127.5v559h-377v-561zM152 1288q0 79 56 124.5t132 45.5t133 -45.5t57 -124.5 q0 -75 -57 -119.5t-133 -44.5t-132 44t-56 120zM737 1288q0 79 57 124.5t134 45.5q75 0 131.5 -45.5t56.5 -124.5q0 -75 -57 -119.5t-131 -44.5q-77 0 -134 44t-57 120z" />
<glyph unicode="&#xfd;" horiz-adv-x="1191" d="M-6 1012l401 -967l-205 -473h394l626 1440h-403l-94 -240l-123 -352l-111 350l-86 242h-399zM424 1114v12l158 330h395v-16l-223 -326h-330z" />
<glyph unicode="&#xfe;" horiz-adv-x="1310" d="M111 -397v1806h374v-485q116 108 312 108q108 0 196.5 -43t144.5 -116t86.5 -166t30.5 -195q0 -104 -29 -197t-86 -168.5t-151 -120t-213 -44.5q-74 0 -153.5 26t-137.5 78v-483h-374zM512 504q0 -82 54.5 -142.5t129.5 -60.5q79 0 133 56t54 147t-54 147t-133 56 q-74 0 -129 -60.5t-55 -142.5z" />
<glyph unicode="&#xff;" horiz-adv-x="1191" d="M-6 1012l401 -967l-205 -473h394l626 1440h-403l-94 -240l-123 -352l-111 350l-86 242h-399zM125 1284q0 82 56.5 129t133.5 47q78 0 136.5 -47t58.5 -129q0 -79 -58.5 -124.5t-136.5 -45.5q-77 0 -133.5 45.5t-56.5 124.5zM719 1284q0 82 57.5 129t136.5 47 q76 0 134.5 -47.5t58.5 -128.5q0 -79 -58.5 -124.5t-134.5 -45.5q-79 0 -136.5 45.5t-57.5 124.5z" />
<glyph unicode="&#x152;" horiz-adv-x="2095" d="M68 723q0 165 47.5 300.5t140 235t236.5 154.5t329 55q102 0 258 -32h910v-312h-619v-229h582v-307h-582v-269h635v-319h-918q-113 -35 -266 -35q-188 0 -333 56.5t-236 158.5t-137.5 239t-46.5 304zM455 721q0 -124 42.5 -226.5t133 -168.5t215.5 -66q108 0 180 33v852 q-83 33 -190 33q-110 0 -198.5 -64.5t-135.5 -168.5t-47 -224z" />
<glyph unicode="&#x153;" horiz-adv-x="1941" d="M55 504q0 111 32 201t86.5 150.5t129.5 101.5t157.5 59t172.5 18q243 0 373 -153q59 69 154 112t192 43q135 0 245 -43.5t183.5 -125.5t100.5 -200t-5 -268h-702q19 -62 85 -95.5t136 -33.5q150 0 260 82l188 -217q-88 -76 -213.5 -115.5t-257.5 -39.5q-245 0 -368 151 q-170 -156 -396 -156q-112 0 -211 33.5t-176 97.5t-121.5 166.5t-44.5 231.5zM432 504q0 -96 52.5 -157.5t148.5 -61.5t148.5 61.5t52.5 157.5q0 97 -52.5 159t-148.5 62t-148.5 -62t-52.5 -159zM1176 641h362q-3 46 -39 77.5t-86 39.5t-101 1t-90 -39t-46 -79z" />
<glyph unicode="&#x178;" horiz-adv-x="1478" d="M-12 1417l544 -846v-571h406v571l569 844v19h-456l-310 -492l-297 492h-456v-17zM256 1735q0 82 56.5 129t133.5 47q78 0 136.5 -47t58.5 -129q0 -79 -58.5 -124.5t-136.5 -45.5q-77 0 -133.5 45.5t-56.5 124.5zM850 1735q0 82 57.5 129t136.5 47q76 0 134.5 -47.5 t58.5 -128.5q0 -79 -58.5 -124.5t-134.5 -45.5q-79 0 -136.5 45.5t-57.5 124.5z" />
<glyph unicode="&#x2c6;" horiz-adv-x="923" d="M10 1108v16l312 322h233l311 -322v-16h-323l-105 96l-104 -96h-324z" />
<glyph unicode="&#x2dc;" horiz-adv-x="997" d="M61 1272q25 68 75.5 114.5t111 64t127.5 11t127 -38.5q48 -26 85 -33.5t72 8.5t62 60l199 -129q-55 -142 -171.5 -186.5t-265.5 26.5q-161 88 -215 -28z" />
<glyph unicode="&#x2000;" horiz-adv-x="961" />
<glyph unicode="&#x2001;" horiz-adv-x="1922" />
<glyph unicode="&#x2002;" horiz-adv-x="961" />
<glyph unicode="&#x2003;" horiz-adv-x="1922" />
<glyph unicode="&#x2004;" horiz-adv-x="640" />
<glyph unicode="&#x2005;" horiz-adv-x="480" />
<glyph unicode="&#x2006;" horiz-adv-x="320" />
<glyph unicode="&#x2007;" horiz-adv-x="320" />
<glyph unicode="&#x2008;" horiz-adv-x="240" />
<glyph unicode="&#x2009;" horiz-adv-x="384" />
<glyph unicode="&#x200a;" horiz-adv-x="106" />
<glyph unicode="&#x2010;" horiz-adv-x="1044" d="M111 444v299h823v-299h-823z" />
<glyph unicode="&#x2011;" horiz-adv-x="1044" d="M111 444v299h823v-299h-823z" />
<glyph unicode="&#x2012;" horiz-adv-x="1044" d="M111 444v299h823v-299h-823z" />
<glyph unicode="&#x2013;" horiz-adv-x="1243" d="M109 430v301h1026v-301h-1026z" />
<glyph unicode="&#x2014;" horiz-adv-x="1427" d="M111 436v301h1206v-301h-1206z" />
<glyph unicode="&#x2018;" horiz-adv-x="600" d="M68 905l184 531h283l-105 -531h-362z" />
<glyph unicode="&#x2019;" horiz-adv-x="589" d="M84 903l104 531h363l-184 -531h-283z" />
<glyph unicode="&#x201a;" horiz-adv-x="614" d="M33 -317l106 524h369l-178 -524h-297z" />
<glyph unicode="&#x201c;" horiz-adv-x="1030" d="M68 915l217 519h274l-143 -519h-348zM508 915l178 519h277l-101 -519h-354z" />
<glyph unicode="&#x201d;" horiz-adv-x="1011" d="M88 915l100 519h355l-178 -519h-277zM492 915l143 519h348l-217 -519h-274z" />
<glyph unicode="&#x201e;" horiz-adv-x="1058" d="M33 -317l106 524h361l-170 -524h-297zM485 -317l113 524h354l-174 -524h-293z" />
<glyph unicode="&#x2022;" horiz-adv-x="899" d="M133 637q0 129 90 211t228 82q135 0 225 -82t90 -211t-89.5 -209t-225.5 -80q-138 0 -228 80t-90 209z" />
<glyph unicode="&#x2026;" horiz-adv-x="1685" d="M87 169q0 48 21 89t68.5 68.5t112.5 27.5t113 -27.5t69.5 -68.5t21.5 -89t-21.5 -89t-69.5 -68.5t-113 -27.5q-64 0 -111.5 27.5t-69 68.5t-21.5 89zM640 169q0 48 21 89t68.5 68.5t112.5 27.5t113 -27.5t69.5 -68.5t21.5 -89t-21.5 -89t-69.5 -68.5t-113 -27.5 q-64 0 -111.5 27.5t-69 68.5t-21.5 89zM1193 169q0 48 21 89t68.5 68.5t112.5 27.5t113 -27.5t69.5 -68.5t21.5 -89t-21.5 -89t-69.5 -68.5t-113 -27.5q-64 0 -111.5 27.5t-69 68.5t-21.5 89z" />
<glyph unicode="&#x202f;" horiz-adv-x="384" />
<glyph unicode="&#x2039;" horiz-adv-x="806" d="M59 598l287 459l395 2l-284 -459q205 -338 286 -461h-397z" />
<glyph unicode="&#x203a;" horiz-adv-x="802" d="M63 152l283 454l-283 459h398l284 -457l-284 -456h-398z" />
<glyph unicode="&#x205f;" horiz-adv-x="480" />
<glyph unicode="&#x20ac;" horiz-adv-x="1320" d="M88 408v247h113v103h-113v239h170q52 150 164 254.5t248 149t284 43t279 -52.5l-98 -289q-92 34 -173.5 39.5t-158.5 -29.5t-123 -115h371l-60 -239h-407q-3 -52 0 -103h385l-54 -247h-231q77 -87 219 -115t250 14l98 -295q-136 -43 -286 -43q-277 0 -460.5 115 t-256.5 324h-160z" />
<glyph unicode="&#x2122;" horiz-adv-x="1734" d="M123 1212v222h620v-222h-188v-401h-248v401h-184zM831 809v625h242l141 -179l138 179h243v-625h-245v141l8 148l-117 -162h-57l-117 164l8 -150v-141h-244z" />
<glyph unicode="&#x25fc;" horiz-adv-x="1013" d="M0 0v1014h1014v-1014h-1014z" />
<glyph unicode="&#xfb01;" horiz-adv-x="1443" d="M35 707h172v-707h377v707h243v286h-243v49q0 62 32 93.5t80 31.5q64 0 103 -16l71 260q-85 45 -227 45q-65 0 -126 -14t-118 -46.5t-99 -79.5t-67.5 -117.5t-25.5 -156.5v-49h-172v-286zM934 1272q0 90 63.5 140t149.5 50q85 0 148 -50t63 -140q0 -88 -63 -138.5 t-148 -50.5q-86 0 -149.5 50t-63.5 139zM956 0h379v995h-379v-995z" />
<glyph unicode="&#xfb02;" horiz-adv-x="1445" d="M35 707v286h172v49q0 86 25.5 156.5t67.5 117.5t99 79.5t118 46.5t126 14q142 0 227 -45l-71 -260q-39 16 -103 16q-48 0 -80 -31.5t-32 -93.5v-49h243v-286h-243v-707h-377v707h-172zM965 0v1425h370v-1425h-370z" />
</font>
</defs>
</svg>
